Ивановский Торрент трекер
Яндекс.Погода
 

[Цитировать]
HUNTER

Патэма наоборот / Sakasama no Patema
サカサマのパテマ
- Страна: Япония
Год выхода: 2013
Жанр: Приключения, фантастика
Тип: Movie
Продолжительность: 90 мин.-Режиссер: Ёсиура Ясухиро
Автор оригинала: Ёсиура Ясухиро-Озвучка: многоголосый (муж/жен) от Gazig, ShoutaVoice, Sad_kit , Milirina [Anything-group]-Тех. поддержка: Jen_Goro-Описание: В результате некой произошедшей в прошлом катастрофы человечество разделилось на два народа. Для первого народа гравитация действует наоборот и его представители, а также используемые ими вещи падают в небеса. Однако, эти люди живут под землей, поэтому большой угрозы для них эта особенность не представляет. Для второго народа гравитация действует обычным образом и он живет на поверхности земли. Жизни этих двух народов практически не пересекаются и о существовании друг друга большая часть их представителей не знает. Однако, у живущих на поверхности людей есть история о том что в прошлом грешники улетели на небеса. Поэтому в обществе считается недопустимым смотреть на небо и следует направлять свой взгляд на землю.
World-Art

Качество: BDRip
Тип релиза: Без хардсаба
Релиз/Автор рипа:
PublicHD
Формат видео: MKV

  • Видео : MPEG4 Video x264 (8 bits), 1920x1080, 23.976 fps, 8000 Kbps, 16:9
  • Аудио 1: русский, AC3, 6 канала, 48 КГц, 448 Кбит/сек (по умолчанию, вторая в списке Navigate => Audio Language => Gazig, ShoutaVoice, Sad_kit, Milirina [Russian]
  • Аудио 2: японский, DTS, 6 каналов, 48 КГц, 1509 Кбит/сек (по умолчанию, первая в списке Navigate => Audio Language => [Japanese]
  • Субтитры: русские, ASS, внутренние от Solmir_Mech-Подробные тех. данные
ОбщееУникальный идентификатор : 180786548657264090530267587701966850425 (0x88023906CF0F740BA05717DC23474979)Полное имя : D:\Sakasama.no.Patema. [anything-group].mkvФормат : MatroskaВерсия формата : Version 4 / Version 2Размер файла : 6,93 ГбайтПродолжительность : 1 ч. 38 м.Общий поток : 10,0 Мбит/секДата кодирования : UTC 2014-06-24 00:39:01Программа кодирования : mkvmerge v6.5.0 ('Isn't she lovely') built on Oct 20 2013 12:50:05Библиотека кодирования : libebml v1.3.0 + libmatroska v1.4.1Attachment : Yes / Yes / Yes / Yes / Yes / Yes / Yes / Yes / Yes
ВидеоИдентификатор : 1Формат : AVCФормат/Информация : Advanced Video CodecПрофиль формата : High@L4.1Параметр CABAC формата : ДаПараметр ReFrames формата : 4 кадраИдентификатор кодека : V_MPEG4/ISO/AVCПродолжительность : 1 ч. 38 м.Битрейт : 8000 Кбит/секШирина : 1920 пикселейВысота : 1080 пикселейСоотношение сторон : 16:9Режим частоты кадров : ПостоянныйЧастота кадров : 23,976 кадра/секЦветовое пространство : YUVСубдискретизация насыщенности : 4:2:0Битовая глубина : 8 битТип развёртки : ПрогрессивнаяБит/(Пиксели*Кадры) : 0.161Размер потока : 5,44 Гбайт (79%)Библиотека кодирования : x264 core 130 r2273 b3065e6Настройки программы : cabac=1 / ref=4 / deblock=1:-1:-1 / analyse=0x3:0x133 / me=umh / subme=11 / psy=1 / psy_rd=0.60:0.00 / mixed_ref=1 / me_range=64 / chroma_me=1 / trellis=2 / 8x8dct=1 / cqm=0 / deadzone=21,11 / fast_pskip=0 / chroma_qp_offset=-2 / threads=12 / lookahead_threads=3 / sliced_threads=0 / nr=0 / decimate=1 / interlaced=0 / bluray_compat=0 / constrained_intra=0 / bframes=10 / b_pyramid=2 / b_adapt=2 / b_bias=0 / direct=3 / weightb=1 / open_gop=0 / weightp=2 / keyint=250 / keyint_min=23 / scenecut=40 / intra_refresh=0 / rc_lookahead=60 / rc=2pass / mbtree=0 / bitrate=8000 / ratetol=1.0 / qcomp=0.70 / qpmin=0 / qpmax=69 / qpstep=4 / cplxblur=20.0 / qblur=0.5 / vbv_maxrate=40000 / vbv_bufsize=30000 / nal_hrd=none / ip_ratio=1.40 / pb_ratio=1.30 / aq=1:0.80Язык : EnglishDefault : ДаForced : Нет
Аудио #1Идентификатор : 2Формат : AC-3Формат/Информация : Audio Coding 3Расширение режима : CM (complete main)Параметр Endianness формата : BigИдентификатор кодека : A_AC3Продолжительность : 1 ч. 38 м.Вид битрейта : ПостоянныйБитрейт : 448 Кбит/секКаналы : 6 каналовРасположение каналов : Front: L C R, Side: L R, LFEЧастота : 48,0 КГцБитовая глубина : 16 битМетод сжатия : С потерямиРазмер потока : 317 Мбайт (4%)Язык : RussianDefault : НетForced : Нет
Аудио #2Идентификатор : 3Формат : DTSФормат/Информация : Digital Theater SystemsРежим : 16Параметр Endianness формата : BigИдентификатор кодека : A_DTSПродолжительность : 1 ч. 38 м.Вид битрейта : ПостоянныйБитрейт : 1509 Кбит/секКаналы : 6 каналовРасположение каналов : Front: L C R, Side: L R, LFEЧастота : 48,0 КГцБитовая глубина : 24 битМетод сжатия : С потерямиРазмер потока : 1,04 Гбайт (15%)Default : ДаForced : Нет
ТекстИдентификатор : 4Формат : ASSИдентификатор кодека : S_TEXT/ASSИдентификатор кодека/Информация : Advanced Sub Station AlphaМетод сжатия : Без потерьDefault : ДаForced : Нет
Скриншоты Отличия
Отличия:
Показать сообщения:    

Текущее время: 22-Окт 02:02

Часовой пояс: UTC - 1


Вы не можете начинать темы
Вы не можете отвечать на сообщения
Вы не можете редактировать свои сообщения
Вы не можете удалять свои сообщения
Вы не можете голосовать в опросах
Вы не можете прикреплять файлы к сообщениям
Вы не можете скачивать файлы

!ВНИМАНИЕ!
Сайт не предоставляет электронные версии произведений, а занимается лишь коллекционированием и каталогизацией ссылок, присылаемых и публикуемых на форуме нашими читателями. Если вы являетесь правообладателем какого-либо представленного материала и не желаете, чтобы ссылка на него находилась в нашем каталоге, свяжитесь с нами, и мы незамедлительно удалим ее. Файлы для обмена на трекере предоставлены пользователями сайта, и администрация не несет ответственности за их содержание. Просьба не заливать файлы, защищенные авторскими правами, а также файлы нелегального содержания!