Важное объявление!
У Нас Все раздачи мультитрекерные, при нуле пиров в релизах, можете смело вставать на закачку!
Статистика раздачи
Размер:     |    Зарегистрирован:     |    Скачан:     |   
Нет
 
     
 
 
Автор Сообщение

HUNTER

Стаж:
5 лет 1 месяц
Сообщений:
68429

Репутация: 101

[+] [-]
Вне форума [Профиль] [ЛС]

Патэма наоборот / Sakasama no Patema / Patema Inverted-
Страна: Япония
Год выпуска: 2013 г.
Жанр: Приключения, фантастика
Тип: Movie
Продолжительность: ~98 мин.
Режиссер: Ёсиура Ясухиро
Студия: Purple Cow Studio Japan-Описание: В результате некой произошедшей в прошлом катастрофы человечество разделилось на два народа. Для первого народа гравитация действует наоборот и его представители, а также используемые ими вещи падают в небеса. Однако, эти люди живут под землей, поэтому большой угрозы для них эта особенность не представляет. Для второго народа гравитация действует обычным образом и он живет на поверхности земли. Жизни этих двух народов практически не пересекаются и о существовании друг друга большая часть их представителей не знает. Однако, у живущих на поверхности людей есть история о том что в прошлом грешники улетели на небеса. Поэтому в обществе считается недопустимым смотреть на небо и следует направлять свой взгляд на землю.
Доп. информация: Информационные ссылки: AniDB || World Art || MAL-Качество: BDRip
Тип релиза: Без хардсаба
Формат видео: MKV
Релиз/Автор рипа: project_2501
Видео: H.264, 1280x720, 1 830 Kbps, 23,976 fps, 10 bit
Аудио: AC3, 640 Kbps, 48.0 KHz, 6ch, JP
Субтитры #1: ASS, Внешние, RUS, от Sheydi Renger
Субтитры #2: ASS, Внешние, ENG, от JnMBS
Подробные тех. данные
GeneralUnique ID : 224998964268559879765984845306211098374 (0xA945396A06E825D3B0C4389397A05F06)Complete name : E:\Раздачи\[Project_2501] Sakasama no Patema\[Project_2501] Sakasama no Patema (BDRip 1280x720 x264 AC3).mkvFormat : MatroskaFormat version : Version 4 / Version 2File size : 1.74 GiBDuration : 1h 38mnOverall bit rate : 2 521 KbpsEncoded date : UTC 2014-05-10 08:41:32Writing application : mkvmerge v6.7.0 ('Back to the Ground') 64bit built on Jan 8 2014 15:10:52Writing library : libebml v1.3.0 + libmatroska v1.4.1
VideoID : 2Format : AVCFormat/Info : Advanced Video CodecFormat profile : High 10@L5.0Format settings, CABAC : YesFormat settings, ReFrames : 16 framesCodec ID : V_MPEG4/ISO/AVCDuration : 1h 38mnBit rate : 1 830 KbpsWidth : 1 280 pixelsHeight : 720 pixelsDisplay aspect ratio : 16:9Frame rate mode : ConstantFrame rate : 23.976 fpsColor space : YUVChroma subsampling : 4:2:0Bit depth : 10 bitsScan type : ProgressiveBits/(Pixel*Frame) : 0.083Stream size : 1.26 GiB (73%)Title : Sakasama no PatemaWriting library : x264 core 138 r2358 9e941d1Encoding settings : cabac=1 / ref=16 / deblock=1:0:0 / analyse=0x3:0x133 / me=umh / subme=10 / psy=1 / psy_rd=1.00:0.00 / mixed_ref=1 / me_range=24 / chroma_me=1 / trellis=2 / 8x8dct=1 / cqm=0 / deadzone=21,11 / fast_pskip=1 / chroma_qp_offset=-2 / threads=12 / lookahead_threads=2 / sliced_threads=0 / nr=0 / decimate=1 / interlaced=0 / bluray_compat=0 / constrained_intra=0 / bframes=8 / b_pyramid=2 / b_adapt=2 / b_bias=0 / direct=3 / weightb=1 / open_gop=0 / weightp=2 / keyint=240 / keyint_min=23 / scenecut=40 / intra_refresh=0 / rc_lookahead=60 / rc=crf / mbtree=1 / crf=16.0 / qcomp=0.60 / qpmin=0 / qpmax=81 / qpstep=4 / ip_ratio=1.40 / aq=1:1.00Language : JapaneseDefault : YesForced : No
AudioID : 1Format : AC-3Format/Info : Audio Coding 3Mode extension : CM (complete main)Format settings, Endianness : BigCodec ID : A_AC3Duration : 1h 38mnBit rate mode : ConstantBit rate : 640 KbpsChannel count : 6 channelsChannel positions : Front: L C R, Side: L R, LFESampling rate : 48.0 KHzBit depth : 16 bitsCompression mode : LossyStream size : 452 MiB (25%)Title : JP SoundLanguage : JapaneseDefault : YesForced : No
Скриншоты

_________________
Показать сообщения:    

Текущее время: Сегодня 07:40

Часовой пояс: GMT



Вы не можете начинать темы
Вы не можете отвечать на сообщения
Вы не можете редактировать свои сообщения
Вы не можете удалять свои сообщения
Вы не можете голосовать в опросах
Вы не можете прикреплять файлы к сообщениям
Вы не можете скачивать файлы