Важное объявление!
У Нас Все раздачи мультитрекерные, при нуле пиров в релизах, можете смело вставать на закачку!
Статистика раздачи
Размер:     |    Зарегистрирован:     |    Скачан:     |   
Нет
 
     
 
 
Автор Сообщение

HUNTER

Стаж:
5 лет
Сообщений:
67898

Репутация: 101

[+] [-]
Вне форума [Профиль] [ЛС]

Паттон / Patton
Страна: США
Студия: 20th Century Fox Film Corporation
Жанр: драма, военный, биография, история
Год выпуска: 1970
Продолжительность: 02:51:57
Перевод: Профессиональный (многоголосый закадровый)
Перевод 2: Профессиональный (многоголосый закадровый) Первый канал
Перевод 3: Профессиональный (двухголосый закадровый)
Cубтитры: русские, английские
Оригинальная аудиодорожка: английский
Режиссер: Франклин Дж. Шаффнер / Franklin J. Schaffner
В ролях: Джордж К. Скотт, Карл Молден, Стивен Янг, Майкл Стронг, Кэри Лофтин, Альберт Дюмортиер, Фрэнк Латимор, Морган Полл, Карл Михаэль Фоглер, Билл Хикман
Описание: По книгам «Паттон: испытания и триумф» и «История солдата» генерала Омара Н. Брэдли. Биография генерала Джорджа Паттона, чей темперамент часто оказывал влияние на ход военных действий во время второй мировой войны.

Сэмпл: http://multi-up.com/1035019
Тип релиза: BDRip 1080p
Контейнер: MKV
Видео: MPEG4 Video (H264) 1920x876 23.976fps 13.9 Mbps
Аудио: Русский DTS / 6 ch / 48.0 KHz / 755 Kbps | Многоголосый закадровый
Аудио 2: Русский AC-3 / 2 ch / 48.0 KHz / 192 Kbps | Многоголосый закадровый
Аудио 3: Русский AC-3 / 2 ch / 48.0 KHz / 192 Kbps | Двухголосый закадровый
Аудио 4: Английский DTS / 6 ch / 48.0 KHz / 1 509 Kbps | Original
Аудио 5: Английский AC-3 / 2 ch / 48.0 KHz / 224 Kbps | Commentary
Формат субтитров: softsub (SRT)

Интересное

Джордж К. Скотт отказался принять премию «Оскар» за роль генерала Паттона, поскольку не считал, что соревнуется с другими актёрами. Продюсер фильма Фрэнк Маккарти во время церемонии принял награду от имени Скотта, однако, в соответствии с желанием актёра, на следующий день вернул статуэтку киноакадемии. Также на церемонии отсутствовали Фрэнсис Форд Коппола (приз за сценарий в одиночку принял Эдмунд Норт) и режиссер Франклин Шеффнер (от его имени награду взял Карл Молден).
В 2003 году фильм был помещён в Национальный реестр фильмов.

MediaInfo

General
Unique ID : 229665312086479019761265314599224498210 (0xACC7EE1FD8B3FC6CAA0ED8D335A45822)
Complete name : D:\Patton.1970.Remastered.BDRip.1080p.mkv
Format : Matroska
Format version : Version 4 / Version 2
File size : 20.1 GiB
Duration : 2h 51mn
Overall bit rate : 16.8 Mbps
Encoded date : UTC 2015-02-25 04:02:36
Writing application : mkvmerge v7.4.0 ('Circles') 64bit built on Dec 12 2014 12:19:56
Writing library : libebml v1.3.0 + libmatroska v1.4.1
DURATION : 02:05:40.575000000
NUMBER_OF_FRAMES : 112
NUMBER_OF_BYTES : 5001
_STATISTICS_WRITING_APP : mkvmerge v7.4.0 ('Circles') 64bit built on Dec 12 2014 12:19:56
_STATISTICS_WRITING_DATE_UTC : 2015-02-25 04:02:36
_STATISTICS_TAGS : BPS DURATION NUMBER_OF_FRAMES NUMBER_OF_BYTES
Video
ID : 1
Format : AVC
Format/Info : Advanced Video Codec
Format profile : High@L4.1
Format settings, CABAC : Yes
Format settings, ReFrames : 4 frames
Codec ID : V_MPEG4/ISO/AVC
Duration : 2h 51mn
Bit rate : 13.9 Mbps
Width : 1 920 pixels
Height : 876 pixels
Display aspect ratio : 2.2:1
Frame rate mode : Constant
Frame rate : 23.976 fps
Color space : YUV
Chroma subsampling : 4:2:0
Bit depth : 8 bits
Scan type : Progressive
Bits/(Pixel*Frame) : 0.345
Stream size : 16.3 GiB (81%)
Title : MPEG-4AVC@High Profile L4.1, 24/1.001 fps @ 13900 kbps
Writing library : x264 core 129 r2230 1cffe9f
Encoding settings : cabac=1 / ref=4 / deblock=1:-3:-3 / analyse=0x3:0x133 / me=esa / subme=11 / psy=1 / psy_rd=1.00:0.00 / mixed_ref=1 / me_range=32 / chroma_me=1 / trellis=2 / 8x8dct=1 / cqm=0 / deadzone=21,11 / fast_pskip=0 / chroma_qp_offset=-2 / threads=24 / lookahead_threads=4 / sliced_threads=0 / nr=0 / decimate=0 / interlaced=0 / bluray_compat=0 / constrained_intra=0 / bframes=6 / b_pyramid=2 / b_adapt=2 / b_bias=0 / direct=3 / weightb=1 / open_gop=0 / weightp=2 / keyint=240 / keyint_min=23 / scenecut=40 / intra_refresh=0 / rc_lookahead=60 / rc=2pass / mbtree=1 / bitrate=13900 / ratetol=1.0 / qcomp=0.60 / qpmin=0 / qpmax=69 / qpstep=4 / cplxblur=20.0 / qblur=0.5 / vbv_maxrate=45000 / vbv_bufsize=45000 / nal_hrd=none / ip_ratio=1.40 / aq=1:0.60
Language : English
Default : Yes
Forced : No
DURATION : 02:51:57.266000000
NUMBER_OF_FRAMES : 247367
NUMBER_OF_BYTES : 17923317182
_STATISTICS_WRITING_APP : mkvmerge v7.4.0 ('Circles') 64bit built on Dec 12 2014 12:19:56
_STATISTICS_WRITING_DATE_UTC : 2015-02-25 04:02:36
_STATISTICS_TAGS : BPS DURATION NUMBER_OF_FRAMES NUMBER_OF_BYTES
Audio #1
ID : 2
Format : DTS
Format/Info : Digital Theater Systems
Mode : 16
Format settings, Endianness : Big
Codec ID : A_DTS
Duration : 2h 51mn
Bit rate mode : Constant
Bit rate : 755 Kbps
Channel(s) : 6 channels
Channel positions : Front: L C R, Side: L R, LFE
Sampling rate : 48.0 KHz
Bit depth : 24 bits
Compression mode : Lossy
Stream size : 928 MiB (4%)
Title : MVO
Language : Russian
Default : Yes
Forced : No
Audio #2
ID : 3
Format : AC-3
Format/Info : Audio Coding 3
Mode extension : CM (complete main)
Format settings, Endianness : Big
Codec ID : A_AC3
Duration : 2h 51mn
Bit rate mode : Constant
Bit rate : 192 Kbps
Channel(s) : 2 channels
Channel positions : Front: L R
Sampling rate : 48.0 KHz
Bit depth : 16 bits
Compression mode : Lossy
Stream size : 236 MiB (1%)
Title : MVO (Первый канал)
Language : Russian
Default : No
Forced : No
Audio #3
ID : 4
Format : AC-3
Format/Info : Audio Coding 3
Mode extension : CM (complete main)
Format settings, Endianness : Big
Codec ID : A_AC3
Duration : 2h 51mn
Bit rate mode : Constant
Bit rate : 192 Kbps
Channel(s) : 2 channels
Channel positions : Front: L R
Sampling rate : 48.0 KHz
Bit depth : 16 bits
Compression mode : Lossy
Stream size : 236 MiB (1%)
Title : DVO
Language : Russian
Default : No
Forced : No
Audio #4
ID : 5
Format : DTS
Format/Info : Digital Theater Systems
Mode : 16
Format settings, Endianness : Big
Codec ID : A_DTS
Duration : 2h 51mn
Bit rate mode : Constant
Bit rate : 1 509 Kbps
Channel(s) : 6 channels
Channel positions : Front: L C R, Side: L R, LFE
Sampling rate : 48.0 KHz
Bit depth : 24 bits
Compression mode : Lossy
Stream size : 1.81 GiB (9%)
Title : English DTS-HD Master Audio 5.1 @ 1 509 Kbps
Language : English
Default : No
Forced : No
Audio #5
ID : 6
Format : AC-3
Format/Info : Audio Coding 3
Mode extension : CM (complete main)
Format settings, Endianness : Big
Codec ID : A_AC3
Duration : 2h 51mn
Bit rate mode : Constant
Bit rate : 224 Kbps
Channel(s) : 2 channels
Channel positions : Front: L R
Sampling rate : 48.0 KHz
Bit depth : 16 bits
Compression mode : Lossy
Stream size : 276 MiB (1%)
Title : English Dolby Digital Audio 2.0 @ 224 kbps Commentary
Language : English
Default : No
Forced : No
Text #1
ID : 7
Format : UTF-8
Codec ID : S_TEXT/UTF8
Codec ID/Info : UTF-8 Plain Text
Title : #1
Language : Russian
Default : No
Forced : No
Text #2
ID : 8
Format : UTF-8
Codec ID : S_TEXT/UTF8
Codec ID/Info : UTF-8 Plain Text
Title : #2
Language : Russian
Default : No
Forced : No
Text #3
ID : 9
Format : UTF-8
Codec ID : S_TEXT/UTF8
Codec ID/Info : UTF-8 Plain Text
Title : English SDH
Language : English
Default : No
Forced : No
Text #4
ID : 10
Format : UTF-8
Codec ID : S_TEXT/UTF8
Codec ID/Info : UTF-8 Plain Text
Title : English Foreign Parts
Language : English
Default : No
Forced : No
Menu
00:00:00.000 : en:00:00:00.000
00:06:19.838 : en:00:06:19.838
00:08:21.918 : en:00:08:21.918
00:12:05.600 : en:00:12:05.600
00:15:01.818 : en:00:15:01.818
00:24:00.230 : en:00:24:00.230
00:27:28.564 : en:00:27:28.564
00:30:26.158 : en:00:30:26.158
00:32:30.532 : en:00:32:30.532
00:36:52.085 : en:00:36:52.085
00:39:30.118 : en:00:39:30.118
00:53:58.318 : en:00:53:58.318
00:56:35.767 : en:00:56:35.767
01:00:34.631 : en:01:00:34.631
01:05:13.368 : en:01:05:13.368
01:08:03.955 : en:01:08:03.955
01:14:06.609 : en:01:14:06.609
01:18:29.830 : en:01:18:29.830
01:23:38.764 : en:01:23:38.764
01:27:57.439 : en:01:27:57.439
01:31:21.392 : en:01:31:21.392
01:40:45.956 : en:01:40:45.956
01:43:14.188 : en:01:43:14.188
01:48:20.869 : en:01:48:20.869
01:56:29.774 : en:01:56:29.774
02:00:27.178 : en:02:00:27.178
02:06:02.722 : en:02:06:02.722
02:08:50.931 : en:02:08:50.931
02:12:58.262 : en:02:12:58.262
02:19:15.055 : en:02:19:15.055
02:25:41.733 : en:02:25:41.733
02:30:16.299 : en:02:30:16.299
02:35:36.243 : en:02:35:36.243
02:37:09.086 : en:02:37:09.086
02:40:46.678 : en:02:40:46.678
02:45:53.443 : en:02:45:53.443
02:50:41.064 : en:02:50:41.064

Скриншоты


_________________
Показать сообщения:    

Текущее время: Сегодня 14:49

Часовой пояс: GMT



Вы не можете начинать темы
Вы не можете отвечать на сообщения
Вы не можете редактировать свои сообщения
Вы не можете удалять свои сообщения
Вы не можете голосовать в опросах
Вы не можете прикреплять файлы к сообщениям
Вы не можете скачивать файлы