Ивановский Торрент трекер
Яндекс.Погода
 

[Цитировать]
димитри37

Паспорт-
Жанр: комедия
Год выпуска: 1990
Продолжительность: 01:41:45-Режиссёр: Георгий Данелия-В ролях:
Жерар Дармон - Мераб Папашвили, Яков Папашвили (озвучивал Мурман Джинория)
Наталья Гундарева - Инга, жена Якова
Олег Янковский - Боря, эмигрант из СССР
Армен Джигарханян - Семён Клайн, бывший советский разведчик
Евгений Леонов - сотрудник советского посольства в Вене
Мамука Кикалейшвили - Моше Сепиашвили
Леонид Ярмольник - израильский друг Бори
Леван Пилпани - Папашвили-отец
Яаков Бен Сира - дядя Изя (озвучивал Геннадий Хазанов)
Нина Тер-Осипян - тётя Сара, мама дяди Изи
Ким Салливан - Джейн, американская журналистка
Игорь Кваша - главный раввин Московской синагоги
Александр Берда - Василий Ермаков, армейский друг Мераба
Амиран Амиранашвили - Сурен, таксист
Описание: Братья Папашвили, приехав в аэропорт, откуда один из них должен улететь в Израиль, захотели выпить шампанского. На территории СССР его не продавали, и Мераб пересёк границу по паспорту брата и купил бутылку. Но обратно его не пустили. И в Израиль улетел не хормейстер детского хора Яков, а похожий на него как две капли воды - таксист Мераб. О его приключениях и рассказывает эта комедия. Израильтяне принимают его за агента КГБ, работники советского торгпредства за провокатора, а вернуться домой официально он не может.- -Качество видео: BDRip-AVC (исходник - BD/HDClub)
Формат видео: MKV
Видео: x264 (High@L4.1); 852x480; Display aspect ratio 16:9, 23.976 fps, 2500 Kbps
Аудио: Оригинал AC-3; 16 bit 48 Khz; 6ch 448 Kbps; CBR.

MediaInfo / x264 log

General
Unique ID : 216105469690126274902667601462417021343 (0xA29466471662686993FA72A6127DD99F)
Complete name : Паспорт.1990.BDRip.mkv
Format : Matroska
Format version : Version 2
File size : 2.10 GiB
Duration : 1h 41mn
Overall bit rate : 2 949 Kbps
Movie name : «Паспорт»
Encoded date : UTC 2013-04-27 13:57:28
Writing application : mkvmerge v5.8.0 ('No Sleep / Pillow') built on Sep 2 2012 15:37:04
Writing library : libebml v1.2.3 + libmatroska v1.3.0
Comment : BDRip-AVC 480p
Original date released : April 20th 2013
Encoded by : imgeorgest®
Video
ID : 1
Format : AVC
Format/Info : Advanced Video Codec
Format profile : High@L4.1
Format settings, CABAC : Yes
Format settings, ReFrames : 13 frames
Codec ID : V_MPEG4/ISO/AVC
Duration : 1h 41mn
Bit rate : 2 500 Kbps
Width : 852 pixels
Height : 480 pixels
Display aspect ratio : 16:9
Frame rate : 23.976 fps
Color space : YUV
Chroma subsampling : 4:2:0
Bit depth : 8 bits
Scan type : Progressive
Bits/(Pixel*Frame) : 0.255
Stream size : 1.74 GiB (83%)
Title : Паспорт.1990
Writing library : x264 core 132 r2309 3b1f1f7
Encoding settings : cabac=1 / ref=13 / deblock=1:-1:-1 / analyse=0x3:0x113 / me=umh / subme=11 / psy=1 / psy_rd=1.10:0.00 / mixed_ref=1 / me_range=48 / chroma_me=1 / trellis=2 / 8x8dct=1 / cqm=0 / deadzone=21,11 / fast_pskip=1 / chroma_qp_offset=-2 / threads=12 / lookahead_threads=2 / sliced_threads=0 / nr=0 / decimate=1 / interlaced=0 / bluray_compat=0 / constrained_intra=0 / bframes=8 / b_pyramid=2 / b_adapt=2 / b_bias=0 / direct=3 / weightb=1 / open_gop=0 / weightp=2 / keyint=250 / keyint_min=23 / scenecut=40 / intra_refresh=0 / rc_lookahead=40 / rc=2pass / mbtree=0 / bitrate=2500 / ratetol=1.0 / qcomp=0.70 / qpmin=0 / qpmax=69 / qpstep=4 / cplxblur=20.0 / qblur=0.5 / vbv_maxrate=50000 / vbv_bufsize=62500 / nal_hrd=none / ip_ratio=1.40 / pb_ratio=1.30 / aq=2:1.00
Language : Russian
Default : Yes
Forced : No
Color primaries : BT.709-5, BT.1361, IEC 61966-2-4, SMPTE RP177
Transfer characteristics : BT.709-5, BT.1361
Matrix coefficients : BT.709-5, BT.1361, IEC 61966-2-4 709, SMPTE RP177
Audio
ID : 2
Format : AC-3
Format/Info : Audio Coding 3
Mode extension : CM (complete main)
Codec ID : A_AC3
Duration : 1h 41mn
Bit rate mode : Constant
Bit rate : 448 Kbps
Channel(s) : 6 channels
Channel positions : Front: L C R, Side: L R, LFE
Sampling rate : 48.0 KHz
Bit depth : 16 bits
Compression mode : Lossy
Stream size : 326 MiB (15%)
Title : Оригинал: AC-3; 16 bit 48 Khz; 6ch 448 Kbps; CBR.
Language : Russian
Default : Yes
Forced : No--...last pass...
x264.exe: --pass 2 --bitrate 2500 --preset medium --profile high --level 4.1 --ref 13 --aq-mode 2 --deblock -1:-1 --merange 48 --bframes 8 --direct auto --b-adapt 2 --trellis 2 --psy-rd 1.10:0.00 --qcomp 0.70 --vbv-maxrate 50000 --vbv-bufsize 62500 --subme 11 --me umh --slow-firstpass --no-mbtree --colorprim bt709 --transfer bt709 --colormatrix bt709 --sar 1:1 --stats "K:\Паспорт.1990.BDRip.log" --output "K:\Паспорт.1990.BDRip.mkv" "L:\Temp\1883.avs"
avs [info]: 852x480p 1:1 @ 24000/1001 fps (cfr)
x264 [info]: using SAR=1/1
x264 [info]: using cpu capabilities: MMX2 SSE2Fast SSSE3 SSE4.2
x264 [info]: profile High, level 4.1
x264 [info]: frame I:988 Avg QP:18.62 size: 77733
x264 [info]: frame P:29241 Avg QP:21.25 size: 27937
x264 [info]: frame B:116150 Avg QP:23.12 size: 8733
x264 [info]: consecutive B-frames: 1.1% 1.1% 4.0% 18.8% 22.4% 43.2% 6.9% 1.6% 0.9%
x264 [info]: mb I I16..4: 1.0% 82.1% 16.9%
x264 [info]: mb P I16..4: 0.1% 8.5% 1.5% P16..4: 31.5% 40.4% 16.1% 0.0% 0.0% skip: 1.8%
x264 [info]: mb B I16..4: 0.0% 0.6% 0.3% B16..8: 38.2% 21.2% 4.5% direct: 7.6% skip:27.6% L0:40.1% L1:45.1% BI:14.8%
x264 [info]: 8x8 transform intra:80.5% inter:54.8%
x264 [info]: direct mvs spatial:99.5% temporal:0.5%
x264 [info]: coded y,uvDC,uvAC intra: 93.8% 88.7% 60.7% inter: 35.4% 21.2% 1.8%
x264 [info]: i16 v,h,dc,p: 29% 31% 9% 31%
x264 [info]: i8 v,h,dc,ddl,ddr,vr,hd,vl,hu: 8% 11% 9% 10% 14% 13% 13% 11% 12%
x264 [info]: i4 v,h,dc,ddl,ddr,vr,hd,vl,hu: 7% 38% 3% 6% 10% 10% 10% 7% 10%
x264 [info]: i8c dc,h,v,p: 36% 27% 20% 17%
x264 [info]: Weighted P-Frames: Y:18.1% UV:7.4%
x264 [info]: ref P L0: 42.4% 11.2% 16.3% 7.6% 5.7% 4.4% 3.6% 2.1% 1.8% 1.5% 1.3% 1.1% 0.9% 0.2% 0.0%
x264 [info]: ref B L0: 77.8% 10.2% 4.2% 2.2% 1.6% 1.2% 1.0% 0.6% 0.5% 0.4% 0.2% 0.1%
x264 [info]: ref B L1: 95.8% 4.2%
x264 [info]: kb/s:2500.16
x264 [total]: encoded 146379 frames, 11.98 fps, 2500.16 kb/s
0 человек читают эту тему: 0 пользователей, 0 скрытых пользователей, 0 гостей

Показать сообщения:    

Текущее время: 22-Авг 23:32

Часовой пояс: UTC - 1


Вы не можете начинать темы
Вы не можете отвечать на сообщения
Вы не можете редактировать свои сообщения
Вы не можете удалять свои сообщения
Вы не можете голосовать в опросах
Вы не можете прикреплять файлы к сообщениям
Вы не можете скачивать файлы

!ВНИМАНИЕ!
Сайт не предоставляет электронные версии произведений, а занимается лишь коллекционированием и каталогизацией ссылок, присылаемых и публикуемых на форуме нашими читателями. Если вы являетесь правообладателем какого-либо представленного материала и не желаете, чтобы ссылка на него находилась в нашем каталоге, свяжитесь с нами, и мы незамедлительно удалим ее. Файлы для обмена на трекере предоставлены пользователями сайта, и администрация не несет ответственности за их содержание. Просьба не заливать файлы, защищенные авторскими правами, а также файлы нелегального содержания!