Ивановский Торрент трекер
Яндекс.Погода
 

[Цитировать]
HUNTER

Паспорт в Париж / Passport to Paris
Страна: США
Жанр: комедия, семейный
Год выпуска: 1999
Продолжительность: 01:23:46
Перевод: Профессиональный (многоголосый закадровый)
Перевод 2: Профессиональный (дублированный)
Cубтитры: французские, английские, английские (для слабослышащих)
Оригинальная аудиодорожка: английский
Режиссер: Алан Меттер / Alan Metter
В ролях: Мэри-Кейт Олсен, Эшли Олсен, Питер Уайт, Мэтт Уинстон, Мэтт МакКой
Описание: Мэри-Кейт и Эшли собираются навестить родственников во Франции. Пакуя свои вещи, они с нетерпением ждут встречи с новыми веселыми приключениями. И они не будут разочарованы. Приехав в Париж, Мэри-Кейт и Эшли без ума влюбляются в двух французских ребят! Вместе они колесят вокруг Парижа на мопедах и осматривают достопримечательности. Близняшки совершают одно веселое безумство за другим: отправляются за покупками по парижским бутикам, изучают Нотр-Дам, ужинают на Эйфелевой башне. Мадмуазели Мэри-Кейт и Эшли предлагают и Вам принять участие в великолепном путешествии...
Семпл
Качество видео: DVD5
Формат видео: DVD Video
Видео: PAL 4:3 (720x576) VBR
Аудио 1: Русский (Dolby AC3, 2 ch, 448 kbps) - Дублированный (VHS)
Аудио 2: Русский (Dolby AC3, 2 ch, 192 kbps) - Многоголосый
Аудио 3: Английский (Dolby AC3, 2 ch, 192 kbps)
Аудио 4: Французский (Dolby AC3, 2 ch, 192 kbps)

Информация о сборке DVD

  • За основу был взял европейский DVD (UK издание)
  • Меню не подвергалось изменению
  • Оцифровка дублированной аудиодорожки с кассеты
  • Реавторинг DVD: Sonic Scenarist
  • Звук: Sony Vegas

MediaInfo

Формат : MPEG-PS
Размер файла : 1024 Мбайт
Продолжительность : 21 м.
Режим общего битрейта : Переменный
Общий поток : 6815 Кбит/сек
Видео
Идентификатор : 224 (0xE0)
Формат : MPEG Video
Версия формата : Version 2
Профиль формата : Main@Main
Параметр BVOP формата : Да
Параметр матрицы формата : Выборочная
Параметр GOP формата : M=3, N=15
Структура изображения : Frame
Продолжительность : 21 м.
Вид битрейта : Переменный
Битрейт : 5655 Кбит/сек
Максимальный битрейт : 8000 Кбит/сек
Ширина : 720 пикселей
Высота : 576 пикселей
Соотношение сторон : 4:3
Частота кадров : 25,000 кадров/сек
Стандарт вещания : PAL
Цветовое пространство : YUV
Субдискретизация насыщенности : 4:2:0
Битовая глубина : 8 бит
Тип развёртки : Чересстрочная
Порядок развёртки : Верхнее поле первое
Метод сжатия : С потерями
Бит/(Пиксели*Кадры) : 0.545
Временной код первого кадра : 01:21:10:24
Оригинал временного кода : Group of pictures header
GOP, открыто/закрыто : Открыто
Размер потока : 849 Мбайт (83%)
Аудио #1
Идентификатор : 189 (0xBD)-128 (0x80)
Формат : AC-3
Формат/Информация : Audio Coding 3
Профиль формата : Dolby Digital
Расширение режима : CM (complete main)
Параметр Endianness формата : Big
Режим смешивания : DVD-Video
Продолжительность : 21 м.
Вид битрейта : Постоянный
Битрейт : 192 Кбит/сек
Каналы : 2 канала
Расположение каналов : Front: L R
Частота : 48,0 КГц
Частота кадров : 31,250 кадров/сек (1536 spf)
Метод сжатия : С потерями
Задержка видео : -272 мс.
Размер потока : 28,8 Мбайт (3%)
Аудио #2
Идентификатор : 189 (0xBD)-129 (0x81)
Формат : AC-3
Формат/Информация : Audio Coding 3
Профиль формата : Dolby Digital
Расширение режима : CM (complete main)
Параметр Endianness формата : Big
Режим смешивания : DVD-Video
Продолжительность : 21 м.
Вид битрейта : Постоянный
Битрейт : 192 Кбит/сек
Каналы : 2 канала
Расположение каналов : Front: L R
Частота : 48,0 КГц
Частота кадров : 31,250 кадров/сек (1536 spf)
Метод сжатия : С потерями
Задержка видео : -272 мс.
Размер потока : 28,8 Мбайт (3%)
Аудио #3
Идентификатор : 189 (0xBD)-130 (0x82)
Формат : AC-3
Формат/Информация : Audio Coding 3
Расширение режима : CM (complete main)
Параметр Endianness формата : Big
Режим смешивания : DVD-Video
Продолжительность : 21 м.
Вид битрейта : Постоянный
Битрейт : 448 Кбит/сек
Каналы : 2 канала
Расположение каналов : Front: L R
Частота : 48,0 КГц
Частота кадров : 31,250 кадров/сек (1536 spf)
Метод сжатия : С потерями
Задержка видео : -304 мс.
Размер потока : 67,3 Мбайт (7%)
Аудио #4
Идентификатор : 189 (0xBD)-131 (0x83)
Формат : AC-3
Формат/Информация : Audio Coding 3
Расширение режима : CM (complete main)
Параметр Endianness формата : Big
Режим смешивания : DVD-Video
Продолжительность : 21 м.
Вид битрейта : Постоянный
Битрейт : 192 Кбит/сек
Каналы : 2 канала
Расположение каналов : Front: L R
Частота : 48,0 КГц
Частота кадров : 31,250 кадров/сек (1536 spf)
Метод сжатия : С потерями
Задержка видео : -272 мс.
Размер потока : 28,8 Мбайт (3%)
Текст #1
Идентификатор : 189 (0xBD)-32 (0x20)
Формат : RLE
Формат/Информация : Run-length encoding
Режим смешивания : DVD-Video
Задержка видео : 1 с. 280 мс.
Текст #2
Идентификатор : 189 (0xBD)-33 (0x21)
Формат : RLE
Формат/Информация : Run-length encoding
Режим смешивания : DVD-Video
Задержка видео : 1 с. 40 мс.
Текст #3
Идентификатор : 189 (0xBD)-34 (0x22)
Формат : RLE
Формат/Информация : Run-length encoding
Режим смешивания : DVD-Video
Задержка видео : 1 с. 280 мс.

DVDInfo

Title: Паспорт в Париж
Size: 4.09 Gb ( 4 289 964,00 KBytes ) - DVD-5
Enabled regions: 1, 2, 3, 4, 5, 6, 8
VTS_01 :
Play Length: 01:23:46+00:00:12+00:04:31
Video: PAL 4:3 (720x576) VBR
Audio:
English (Dolby AC3, 2 ch)
Francais (Dolby AC3, 2 ch)
Russian (Dolby AC3, 2 ch)
Russian (Dolby AC3, 2 ch)
Subtitles:
English
Francais
English
* Menus Information *
VIDEO_TS Menu
Video:
PAL 16:9 (720x576) VBR
Auto Pan&Scan
English Language Unit :
Title Menu
VTS_01 Menu
Video:
PAL 16:9 (720x576) VBR
Auto Pan&Scan
Audio:
Not specified (Dolby AC3, 2 ch)
English Language Unit :
Root Menu
Language Unit :

Скриншот c названием фильма

Меню диска

Показать сообщения:    

Текущее время: 20-Сен 12:01

Часовой пояс: UTC - 1


Вы не можете начинать темы
Вы не можете отвечать на сообщения
Вы не можете редактировать свои сообщения
Вы не можете удалять свои сообщения
Вы не можете голосовать в опросах
Вы не можете прикреплять файлы к сообщениям
Вы не можете скачивать файлы

!ВНИМАНИЕ!
Сайт не предоставляет электронные версии произведений, а занимается лишь коллекционированием и каталогизацией ссылок, присылаемых и публикуемых на форуме нашими читателями. Если вы являетесь правообладателем какого-либо представленного материала и не желаете, чтобы ссылка на него находилась в нашем каталоге, свяжитесь с нами, и мы незамедлительно удалим ее. Файлы для обмена на трекере предоставлены пользователями сайта, и администрация не несет ответственности за их содержание. Просьба не заливать файлы, защищенные авторскими правами, а также файлы нелегального содержания!