Важное объявление!
У Нас Все раздачи мультитрекерные, при нуле пиров в релизах, можете смело вставать на закачку!
Статистика раздачи
Размер:     |    Зарегистрирован:     |    Скачан:     |   
Нет
 
     
 
 
Автор Сообщение

HUNTER

Стаж:
5 лет
Сообщений:
67992

Репутация: 101

[+] [-]
Вне форума [Профиль] [ЛС]

Партнеры по жизни / Life Partners
Страна: США
Студия: Haven Entertainment
Жанр: комедия
Год выпуска: 2014
Продолжительность: 01:32:42
Перевод: Профессиональный (многоголосый закадровый)
Cубтитры: английские
Оригинальная аудиодорожка: английский
Режиссер: Сузанна Фогель / Susanna Fogel
В ролях: Адам Броди, Лесли Мэдилл, Келли Джордан, Зи Джеймс, Грир Грэммер, Патрис Гиббс, Шэрон Фредриксон, Giselle DaMier, Келси Кук, Мэттью Кардаропле, Бет Довер, Эбби Эллиотт, Гиллиан Джейкобс, Розанна ДеСото, Симона Байли, Джон Форест, Монте Маркэм, Лейтон Мистер, Элизабет Хо, Леонэль Клод
Описание: Пэйдж с неопределенной ориентацией обещает своей подруге-лесбиянке Саше, что не выйдет замуж, пока не легализируют однополые браки. Но вскоре пожалеет о своем обещании, ведь ее парень Тим сделает ей предложение, а ее подруга-лесбиянка не задумывается о браке и только бездельничает.

Тип релиза: BDRip 1080p
Контейнер: MKV
Видео: MPEG-4 AVC, 10.0 Mбит/с, 1920x798, 23,976 fps
Аудио: Rus, AC3, 448 kb/s (6 ch), 48 kHz
Аудио 2: Eng, DTS, 1510 kb/s (6 ch), 48 kHz
Формат субтитров: softsub (SRT)

MediaInfo

x264 [info]: frame I:954 Avg QP:13.72 size:174500
x264 [info]: frame P:25296 Avg QP:15.21 size: 93708
x264 [info]: frame B:107124 Avg QP:16.05 size: 42980
x264 [info]: consecutive B-frames: 1.2% 1.2% 5.1% 8.9% 4.6% 75.9% 1.3% 0.3% 1.5%
Format : Matroska
Format version : Version 4 / Version 2
File size : 7.92 GiB
Duration : 1h 32mn
Overall bit rate : 12.2 Mbps
Movie name : Партнеры по жизни. (Tonik)
Encoded date : UTC 2015-02-26 06:44:11
Writing application : mkvmerge v7.1.0 ('Good Love') 64bit built on Jul 27 2014 13:06:55
Writing library : libebml v1.3.0 + libmatroska v1.4.1
_STATISTICS_WRITING_APP : mkvmerge v7.1.0 ('Good Love') 64bit built on Jul 27 2014 13:06:55
_STATISTICS_WRITING_DATE_UTC : 2015-02-26 06:44:11
_STATISTICS_TAGS : BPS DURATION NUMBER_OF_FRAMES NUMBER_OF_BYTES
DURATION : 01:30:23.584000000
NUMBER_OF_FRAMES : 1674
NUMBER_OF_BYTES : 59746
Video
ID : 1
Format : AVC
Format/Info : Advanced Video Codec
Format profile : High@L4.1
Format settings, CABAC : Yes
Format settings, ReFrames : 5 frames
Codec ID : V_MPEG4/ISO/AVC
Duration : 1h 32mn
Bit rate : 10.0 Mbps
Width : 1 920 pixels
Height : 798 pixels
Display aspect ratio : 2.40:1
Frame rate mode : Constant
Frame rate : 23.976 fps
Color space : YUV
Chroma subsampling : 4:2:0
Bit depth : 8 bits
Scan type : Progressive
Bits/(Pixel*Frame) : 0.273
Stream size : 6.50 GiB (82%)
Writing library : x264 core 140 r2377 1ca7bb9
Encoding settings : cabac=1 / ref=5 / deblock=1:-3:-3 / analyse=0x3:0x133 / me=umh / subme=10 / psy=1 / psy_rd=1.00:0.00 / mixed_ref=1 / me_range=48 / chroma_me=1 / trellis=2 / 8x8dct=1 / cqm=0 / deadzone=21,11 / fast_pskip=0 / chroma_qp_offset=-2 / threads=12 / lookahead_threads=2 / sliced_threads=0 / nr=0 / decimate=0 / interlaced=0 / bluray_compat=0 / constrained_intra=0 / bframes=8 / b_pyramid=2 / b_adapt=2 / b_bias=0 / direct=3 / weightb=1 / open_gop=0 / weightp=2 / keyint=240 / keyint_min=23 / scenecut=40 / intra_refresh=0 / rc_lookahead=60 / rc=crf / mbtree=0 / crf=16.3 / qcomp=0.65 / qpmin=0 / qpmax=69 / qpstep=4 / vbv_maxrate=62500 / vbv_bufsize=78125 / crf_max=0.0 / nal_hrd=none / filler=0 / ip_ratio=1.25 / pb_ratio=1.15 / aq=1:0.75
Language : English
Default : Yes
Forced : No
DURATION : 01:32:42.808000000
NUMBER_OF_FRAMES : 133374
NUMBER_OF_BYTES : 7141101665
_STATISTICS_WRITING_APP : mkvmerge v7.1.0 ('Good Love') 64bit built on Jul 27 2014 13:06:55
_STATISTICS_WRITING_DATE_UTC : 2015-02-26 06:44:11
_STATISTICS_TAGS : BPS DURATION NUMBER_OF_FRAMES NUMBER_OF_BYTES
Audio #1
ID : 2
Format : AC-3
Format/Info : Audio Coding 3
Mode extension : CM (complete main)
Format settings, Endianness : Big
Codec ID : A_AC3
Duration : 1h 32mn
Bit rate mode : Constant
Bit rate : 448 Kbps
Channel(s) : 6 channels
Channel positions : Front: L C R, Side: L R, LFE
Sampling rate : 48.0 KHz
Bit depth : 16 bits
Compression mode : Lossy
Stream size : 297 MiB (4%)
Language : Russian
Default : Yes
Forced : No
Audio #2
ID : 3
Format : DTS
Format/Info : Digital Theater Systems
Mode : 16
Format settings, Endianness : Big
Codec ID : A_DTS
Duration : 1h 32mn
Bit rate mode : Constant
Bit rate : 1 509 Kbps
Channel(s) : 6 channels
Channel positions : Front: L C R, Side: L R, LFE
Sampling rate : 48.0 KHz
Bit depth : 24 bits
Compression mode : Lossy
Stream size : 1 001 MiB (12%)
Language : English
Default : No
Forced : No
Text #1
ID : 4
Format : UTF-8
Codec ID : S_TEXT/UTF8
Codec ID/Info : UTF-8 Plain Text
Language : English
Default : No
Forced : No
Text #2
ID : 5
Format : UTF-8
Codec ID : S_TEXT/UTF8
Codec ID/Info : UTF-8 Plain Text
Title : SDH
Language : English
Default : No
Forced : No
Menu
00:00:00.000 : en:00:00:00.000
00:08:44.023 : en:00:08:44.023
00:16:22.732 : en:00:16:22.732
00:23:51.639 : en:00:23:51.639
00:33:13.408 : en:00:33:13.408
00:39:12.642 : en:00:39:12.642
00:50:35.741 : en:00:50:35.741
00:57:26.151 : en:00:57:26.151
01:03:10.954 : en:01:03:10.954
01:12:46.195 : en:01:12:46.195
01:19:45.781 : en:01:19:45.781
01:28:44.486 : en:01:28:44.486

Скриншоты


_________________
Показать сообщения:    

Текущее время: Сегодня 12:30

Часовой пояс: GMT



Вы не можете начинать темы
Вы не можете отвечать на сообщения
Вы не можете редактировать свои сообщения
Вы не можете удалять свои сообщения
Вы не можете голосовать в опросах
Вы не можете прикреплять файлы к сообщениям
Вы не можете скачивать файлы