Важное объявление!
У Нас Все раздачи мультитрекерные, при нуле пиров в релизах, можете смело вставать на закачку!
 
Автор Сообщение

HUNTER

Стаж:
4 года 8 месяцев
Сообщений:
62050

Репутация: 101

[+] [-]
Вне форума [Профиль] [ЛС]

Пароль «Рыба-меч» / Swordfish-Год выпуска: 2001
Страна: США, Австралия
Жанр: Боевик, Триллер, Криминал
Продолжительность: 01:39:15
Перевод: Профессиональный (полное дублирование)
Субтитры: Русские, Английские-В ролях: Джон Траволта, Хью Джекман, Холли Берри, Дон Чидл, Сэм Шепард, Винни Джонс, Дреа Де Маттео, Рудольф Мартин, Зэк Гренье, Камрин Граймс, Angelo Pagan, Чарльз Дэниэл, Кирк Б.Р. Уоллер, Кармен Аргензиано, Тим ДиКей, Лаура Лэйн, Тейт Рупперт, Крэйг Браун, Уильям Мапотер, Илья Волох, Джон Фрайзер
Режиссёр: Доминик Сена-Описание: Один из самых опасных шпионов в мире - харизматичный Гэбриэл Шир - работавший когда-то на ЦРУ, а ныне ставший гениальным преступником, задумывает украсть 9 миллиардов долларов из нелегальных правительственных фондов. Для этого ему нужны помощь суперхакера, способного взломать систему безопасности любой компьютерной сети. Таким умельцем является Стенли Джобсон, который недавно отсидел срок за взлом ФБР.
В результате Джобсон остался без гроша, без любимого занятия, а главное - без любимой дочери Холли. Гэбриэл и его очаровательная партнёрша Джинжер заманивают Стэнли в своё дерзкое предприятие, обещая хакеру то, от чего он не может отказаться - в обмен на выполненную работу он получит опекунство над дочерью и шанс начать новую жизнь.
Однако, взявшись за реализацию этой сложной и рискованной операции, Стэнли вдруг понимает, что он лишь пешка в большой игре...-Качество: BDRip 1080р
Формат: MKV
Видео кодек: H.264
Аудио кодек: AC3
Видео: 1920x800p, 7039 Kbps, 23.976 fps
Аудио #1: Русский / AC-3 / 5.1 / 640 kbps / 48,0 КГц
Аудио #2: Английский / AC-3 / 5.1 / 640 kbps / 48,0 КГц-

MediaInfo

Общее
Уникальный идентификатор : 192326228591860739653697749331732086947 (0x90B0AF2C8E34FDEA91372C071A1C40A3)
Полное имя : Пароль «Рыба-меч».2001.BDRip.1080p.Rus.Eng.mkv
Формат : Matroska
Версия формата : Version 2
Размер файла : 5,77 Гбайт
Продолжительность : 1 ч. 39 м.
Общий поток : 8319 Кбит/сек
Название фильма : Пароль «Рыба-меч».2001
Дата кодирования : UTC 2013-01-19 16:19:39
Программа кодирования : mkvmerge v5.8.0 ('No Sleep / Pillow') built on Sep 2 2012 15:37:04
Библиотека кодирования : libebml v1.2.3 + libmatroska v1.3.0
Видео
Идентификатор : 1
Формат : AVC
Формат/Информация : Advanced Video Codec
Профиль формата : [url=mailto:High@L4.1]High@L4.1[/url]
Параметр CABAC формата : Да
Параметр ReFrames формата : 5 кадров
Идентификатор кодека : V_MPEG4/ISO/AVC
Продолжительность : 1 ч. 39 м.
Битрейт : 7039 Кбит/сек
Ширина : 1920 пикселей
Высота : 800 пикселей
Соотношение сторон : 2,40:1
Режим частоты кадров : Постоянный
Частота кадров : 23,976 кадра/сек
Цветовое пространство : YUV
Субдискретизация насыщенности : 4:2:0
Битовая глубина : 8 бит
Тип развёртки : Прогрессивная
Бит/(Пиксели*Кадры) : 0.191
Размер потока : 4,77 Гбайт (83%)
Заголовок : Rip by Boriy
Библиотека кодирования : x264 core 129 r2245 bc13772
Настройки программы : cabac=1 / ref=5 / deblock=1:0:0 / analyse=0x3:0x113 / me=umh / subme=10 / psy=1 / psy_rd=1.00:0.10 / mixed_ref=1 / me_range=32 / chroma_me=1 / trellis=2 / 8x8dct=1 / cqm=0 / deadzone=21,11 / fast_pskip=0 / chroma_qp_offset=-2 / threads=12 / lookahead_threads=2 / sliced_threads=0 / nr=0 / decimate=0 / interlaced=0 / bluray_compat=0 / constrained_intra=0 / bframes=5 / b_pyramid=2 / b_adapt=2 / b_bias=0 / direct=3 / weightb=1 / open_gop=0 / weightp=2 / keyint=240 / keyint_min=23 / scenecut=40 / intra_refresh=0 / rc=2pass / mbtree=0 / bitrate=7039 / ratetol=1.0 / qcomp=0.60 / qpmin=0 / qpmax=69 / qpstep=4 / cplxblur=20.0 / qblur=0.5 / ip_ratio=1.40 / pb_ratio=1.30 / aq=1:0.80
Язык : English
Default : Да
Forced : Нет
Аудио #1
Идентификатор : 2
Формат : AC-3
Формат/Информация : Audio Coding 3
Расширение режима : CM (complete main)
Параметр Endianness формата : Big
Идентификатор кодека : A_AC3
Продолжительность : 1 ч. 39 м.
Вид битрейта : Постоянный
Битрейт : 640 Кбит/сек
Каналы : 6 каналов
Расположение каналов : Front: L C R, Side: L R, LFE
Частота : 48,0 КГц
Битовая глубина : 16 бит
Метод сжатия : С потерями
Размер потока : 454 Мбайт (8%)
Заголовок : Дубляж
Язык : Russian
Default : Да
Forced : Нет
Аудио #2
Идентификатор : 3
Формат : AC-3
Формат/Информация : Audio Coding 3
Расширение режима : CM (complete main)
Параметр Endianness формата : Big
Идентификатор кодека : A_AC3
Продолжительность : 1 ч. 39 м.
Вид битрейта : Постоянный
Битрейт : 640 Кбит/сек
Каналы : 6 каналов
Расположение каналов : Front: L C R, Side: L R, LFE
Частота : 48,0 КГц
Битовая глубина : 16 бит
Метод сжатия : С потерями
Размер потока : 454 Мбайт (8%)
Заголовок : Оригинал
Язык : English
Default : Нет
Forced : Нет
Текст #1
Идентификатор : 4
Формат : UTF-8
Идентификатор кодека : S_TEXT/UTF8
Идентификатор кодека/Информация : UTF-8 Plain Text
Язык : Russian
Default : Нет
Forced : Нет
Текст #2
Идентификатор : 5
Формат : UTF-8
Идентификатор кодека : S_TEXT/UTF8
Идентификатор кодека/Информация : UTF-8 Plain Text
Язык : Russian
Default : Нет
Forced : Нет
Текст #3
Идентификатор : 6
Формат : UTF-8
Идентификатор кодека : S_TEXT/UTF8
Идентификатор кодека/Информация : UTF-8 Plain Text
Язык : English
Default : Нет
Forced : Нет
Меню
00:00:00.000 : :Chapter 1
00:04:03.743 : :Chapter 2
00:08:12.033 : :Chapter 3
00:11:47.456 : :Chapter 4
00:15:07.489 : :Chapter 5
00:18:47.042 : :Chapter 6
00:21:58.275 : :Chapter 7
00:24:14.786 : :Chapter 8
00:25:50.090 : :Chapter 9
00:30:36.000 : :Chapter 10
00:34:01.289 : :Chapter 11
00:37:44.262 : :Chapter 12
00:42:11.654 : :Chapter 13
00:46:48.305 : :Chapter 14
00:49:12.824 : :Chapter 15
00:51:52.275 : :Chapter 16
00:55:27.324 : :Chapter 17
00:58:32.509 : :Chapter 18
01:03:18.544 : :Chapter 19
01:05:53.616 : :Chapter 20
01:09:19.989 : :Chapter 21
01:11:11.433 : :Chapter 22
01:15:24.895 : :Chapter 23
01:20:09.095 : :Chapter 24
01:23:15.782 : :Chapter 25
01:26:55.960 : :Chapter 26
01:29:01.336 : :Chapter 27
01:30:59.454 : :Chapter 28
01:33:29.520 : :Chapter 29
01:39:15.407 : :Chapter 30
-

Скриншоты


_________________
Показать сообщения:    

Текущее время: Сегодня 11:18

Часовой пояс: GMT



Вы не можете начинать темы
Вы не можете отвечать на сообщения
Вы не можете редактировать свои сообщения
Вы не можете удалять свои сообщения
Вы не можете голосовать в опросах
Вы не можете прикреплять файлы к сообщениям
Вы не можете скачивать файлы
Наши партнеры: интернет магазин Ивановского трикотажа textilla.ru