Важное объявление!
У Нас Все раздачи мультитрекерные, при нуле пиров в релизах, можете смело вставать на закачку!
Статистика раздачи
Размер:  737 MB   |    Зарегистрирован:  3 года 8 месяцев   |    Скачан:  1 раз    |   

Полного источника не было: 3 года 6 месяцев

 
     
 
 
 
Автор Сообщение

димитри37

Стаж:
3 года 11 месяцев
Сообщений:
1236

Репутация: 127

[+] [-]
Вне форума [Профиль] [ЛС]

Пародайс. Выпуск 02 (16.06.2013)
Год выпуска: 2013
Страна: Россия
Жанр: Тв-шоу, юмор
Продолжительность: 00:44:37
Перевод: Не требуется
Русские субтитры: нет
Описание: Самые родные голоса России, самые похожие жесты, самые любимые темы. Как настоящие, только лучше. Пока эти парни на сцене, шоу-биз в серьезной опасности! Ведь им ничего не стоит спародировать любую знаменитость. Да так, что мама родная не отличит. Не веришь? Смотри сам! Лучшие пародисты страны собрались на телеканале ПЯТНИЦА! в проекте ПАРОДАЙС ШОУ. Как Алла Пугачева кроет шифером курятник, а Владимир Познер покупает в театральной кассе билеты в Париж? Что Ленин сделал с Ренатой Литвиновой и как пародисты разводят звезд по телефону? Шоу живых пародий ПАРОДАЙС ШОУ на телеканале ПЯТНИЦА! ПРЕМЬЕРА!
Доп. информация: Релиз -

Рип чистый. Без посторонних надписей. Выкладывается как есть.
Качество: SATRip
Формат: AVI
Видео кодек: XVID
Аудио кодек: MP3
Видео: 720x400 (16:9) 25.00fps 2 100 Kbps, 0.293 bit/pixel
Аудио: MPEG Audio 48000Hz stereo 192 Кбит/сек

Скриншоты

Скринлист

MI

GeneralComplete name : D:\Выкладка\Пародайс. Выпуск 02 (16.06.2013) (2013, Тв-шоу, Юмор, SATRip) (MYDIMKA).aviFormat : AVIFormat/Info : Audio Video InterleaveFile size : 737 MiBDuration : 44mn 37sOverall bit rate : 2 310 KbpsWriting application : VirtualDubMod 1.5.10.3 | www.virtualdub-fr.org || (build 2550/release)Writing library : VirtualDubMod build 2550/release
VideoID : 0Format : MPEG-4 VisualFormat profile : Advanced Simple@L5Format settings, BVOP : 1Format settings, QPel : NoFormat settings, GMC : No warppointsFormat settings, Matrix : Default (MPEG)Codec ID : XVIDCodec ID/Hint : XviDDuration : 44mn 37sBit rate : 2 108 KbpsWidth : 720 pixelsHeight : 400 pixelsDisplay aspect ratio : 16:9Frame rate : 25.000 fpsColor space : YUVChroma subsampling : 4:2:0Bit depth : 8 bitsScan type : ProgressiveCompression mode : LossyBits/(Pixel*Frame) : 0.293Stream size : 673 MiB (91%)Writing library : XviD 1.2.1 (UTC 2008-12-04)
AudioID : 1Format : MPEG AudioFormat version : Version 1Format profile : Layer 3Codec ID : 55Codec ID/Hint : MP3Duration : 44mn 37sBit rate mode : ConstantBit rate : 192 KbpsChannel(s) : 2 channelsSampling rate : 48.0 KHzCompression mode : LossyStream size : 61.3 MiB (8%)Alignment : Aligned on interleavesInterleave, duration : 40 ms (1.00 video frame)Interleave, preload duration : 504 msWriting library : LAME3.99rEncoding settings : -m s -V 4 -q 2 -lowpass 18.6 -b 192
-
[iv-torrents.ru].t3948.torrent 
Торрент: Зарегистрирован   [ 2013-06-17 04:01 ]

Скачать .torrent

Скачать

29 KB

Статус: проверено
Скачан торрент файл: 336
Размер: 737 MB  ·  Тип торрента
Оценка релиза:  Средний балл: 0.0 (0 голосов, вы еще не оценили этот релиз)
Поблагодарили: Спасибо
 
Похожие темы

Пожертвовать руб.
Показать сообщения:    

Текущее время: Сегодня 14:55

Часовой пояс: GMT



Вы не можете начинать темы
Вы не можете отвечать на сообщения
Вы не можете редактировать свои сообщения
Вы не можете удалять свои сообщения
Вы не можете голосовать в опросах
Вы не можете прикреплять файлы к сообщениям
Вы можете скачивать файлы
Наши партнеры: интернет магазин Ивановского трикотажа textilla.ru