Ивановский Торрент трекер
Яндекс.Погода
 

[Цитировать]
HUNTER

Парни с Юкона / Yokon Men Дата/Год выпуска: 2012
Страна: США
Жанр: Документальный, познавательный, история, путешеств
Продолжительность: 10 x ~ 00:44:00
Перевод: Одноголосый закадровый
Русские субтитры: нет
Оригинальная аудиодорожка: нет
Режиссер: Ниммерс Штерн, Коллин Эмли, Гарри Корниотс, Джонатан Миллер
Производство: Discovery Channel
Описание: В середина зимы в жителей городка закончилась еда. У Стена в холодильнике осталось всего 5 килограммов мяса - этого хватит на неделю. Без мяса люди умрут с голоду. Начался сезон охоты на Карибу - самое важное событие в году. Сейчас -38 градусов - это самая холодная зима за 40 лет. Он охотится вместе с сыном 21 летним Джоуи, который не смотря на свой возраст уже может охотится и обеспечить семью. Они провели на холмах 3 дня в поисках оленя, но из-за холодов вся дичь ушла в глубь леса...
Релиз-группа:

качество: SATRip
формат: AVI
Видео: MPEG-4 Visual, XviD, 1520 Кбит/сек, 25,000 кадров/сек, 640 х 352 (16:9), 0.270 бит/пиксель
Аудио: MP3, 44,1 КГц, 128 Кбит/сек, 2 канала

Дополнительная информация:
  • Релиз от sheriffiks и Starik60
  • За предоставленный постер огромное Спасибо Anomis

Список выпусков/серий

01. Охотиться или умереть с голоду
02. Гонка за мехом
03. Почти разорены
04. По хрупкому льду
05. Трагическая весна
06. Встань и выйди
07. Затор
08. Колесо несчастья
09. Последний шанс 1 часть
10. Последний шанс 2 часть

MediaInfo

ОбщееПолное имя : E:\torrent\Парни с Юкона - 1 сезон\1.Охотиться или умереть с голоду.aviФормат : AVIФормат/Информация : Audio Video InterleaveРазмер файла : 521 МбайтПродолжительность : 44 м.Режим общего битрейта : ПеременныйОбщий поток : 1651 Кбит/секПрограмма кодирования : VirtualDubMod 1.5.10.3 | www.virtualdub-fr.org || (build 2550/release)Библиотека кодирования : VirtualDubMod build 2550/release
ВидеоИдентификатор : 0Формат : MPEG-4 VisualПрофиль формата : Advanced Simple@L5Параметр BVOP формата : 1Параметр QPel формата : НетПараметр GMC формата : Без точки переходаПараметр матрицы формата : Default (H.263)Идентификатор кодека : XVIDИдентификатор кодека/Подсказка : XviDПродолжительность : 44 м.Битрейт : 1520 Кбит/секШирина : 640 пикселейВысота : 352 пикселяСоотношение сторон : 16:9Частота кадров : 25,000 кадров/секЦветовое пространство : YUVСубдискретизация насыщенности : 4:2:0Битовая глубина : 8 битТип развёртки : ПрогрессивнаяМетод сжатия : С потерямиБит/(Пиксели*Кадры) : 0.270Размер потока : 480 Мбайт (92%)Библиотека кодирования : XviD 1.2.1 (UTC 2008-12-04)
АудиоИдентификатор : 1Формат : MPEG AudioВерсия формата : Version 1Профиль формата : Layer 3Режим : Joint stereoРасширение режима : MS StereoИдентификатор кодека : 55Идентификатор кодека/Подсказка : MP3Продолжительность : 44 м.Вид битрейта : ПеременныйБитрейт : 118 Кбит/секНоминальный битрейт : 128 Кбит/секКаналы : 2 каналаЧастота : 44,1 КГцМетод сжатия : С потерямиРазмер потока : 37,3 Мбайт (7%)Выравнивание : Соединение по промежуткамПродолжительность промежутка : 26 мс. (0,65 видеокадр)Время предзагрузки промежутка : 557 мс.Библиотека кодирования : LAME3.99Настройки программы : -m j -V 4 -q 2 -lowpass 17 --abr 128

Скриншоты

Показать сообщения:    

Текущее время: 21-Сен 11:31

Часовой пояс: UTC - 1


Вы не можете начинать темы
Вы не можете отвечать на сообщения
Вы не можете редактировать свои сообщения
Вы не можете удалять свои сообщения
Вы не можете голосовать в опросах
Вы не можете прикреплять файлы к сообщениям
Вы не можете скачивать файлы

!ВНИМАНИЕ!
Сайт не предоставляет электронные версии произведений, а занимается лишь коллекционированием и каталогизацией ссылок, присылаемых и публикуемых на форуме нашими читателями. Если вы являетесь правообладателем какого-либо представленного материала и не желаете, чтобы ссылка на него находилась в нашем каталоге, свяжитесь с нами, и мы незамедлительно удалим ее. Файлы для обмена на трекере предоставлены пользователями сайта, и администрация не несет ответственности за их содержание. Просьба не заливать файлы, защищенные авторскими правами, а также файлы нелегального содержания!