Ивановский Торрент трекер
Яндекс.Погода
 

[Цитировать]
neon10_10

Парк Юрского периода.Трилогия. / Jurassic Park.Trilogy - -Парк Юрского периода / Jurassic Park- Год выпуска: 1993
Страна: США
Жанр: фантастика, триллер, приключения
Продолжительность: 02:06:07
Перевод: Профессиональный (многоголосый, закадровый)
Язык субтитров: Русский
Режиссер:
  • Стивен Спилберг
В ролях:
  • Сэм Нил, Лора Дерн, Джефф Голдблюм, Ричард Аттенборо, Боб Пек, Мартин Ферреро, Джозеф Маццелло, Ариана Ричардс, Сэмюэл Л. Джексон
Описание:
Экспансивный богач и профессор уговаривает пару ученых — палеонтологов приехать на остров у побережья Коста — Рики, где он устроил реликтовый парк. В парке этом водятся древние зверушки — динозавры, которые по его идее и должны стать гвоздем программы нового аттракциона.
До открытия остается несколько дней, а один из работников, пытаясь продать «рассаду» налево, нарушает систему охраны, что в комплексе с грозовым ливнем приводит к тому, что доисторические животные оказываются на воле, где действуют в соответствии со своими инстинктами. | Качество: HDTVRip
Формат: MKV
Видео кодек: H.264
Аудио кодек: AC3, DTS
Видео: 1280x720, 23,976 кадр/сек, 4194 Кбит/сек
Аудио: AC3, 384 Кбит/сек, 6 каналаов, 48,0 КГц, Russian
Аудио: DTS, 755 Кбит/сек, 6 каналаов, 48,0 КГц, English

Скриншоты

MI

General
Unique ID : 201123766106597193260194561820385200238 (0x974F074313B2EEAA8AB84D3EBC19C86E)
Format : Matroska
Format version : Version 1
File size : 4.70 GiB
Duration : 2h 6mn
Overall bit rate : 5 335 Kbps
Movie name : Cybertron
Encoded date : UTC 2008-12-19 11:27:36
Writing application : mkvmerge v2.1.0 ('Another Place To Fall') built on Aug 19 2007 13:40:07
Writing library : libebml v0.7.7 + libmatroska v0.8.1
Video
ID : 1
Format : AVC
Format/Info : Advanced Video Codec
Format profile : High@L4.1
Format settings, CABAC : Yes
Format settings, ReFrames : 3 frames
Codec ID : V_MPEG4/ISO/AVC
Duration : 2h 6mn
Bit rate : 4 194 Kbps
Width : 1 280 pixels
Height : 720 pixels
Display aspect ratio : 16:9
Frame rate : 23.976 fps
Color space : YUV
Chroma subsampling : 4:2:0
Bit depth : 8 bits
Scan type : Progressive
Bits/(Pixel*Frame) : 0.190
Stream size : 3.60 GiB (77%)
Writing library : x264 core 65 r1046M 71d34b4
Encoding settings : cabac=1 / ref=3 / deblock=1:0:0 / analyse=0x3:0x113 / me=umh / subme=6 / psy_rd=1.0:0.0 / mixed_ref=1 / me_range=12 / chroma_me=1 / trellis=2 / 8x8dct=1 / cqm=0 / deadzone=21,11 / chroma_qp_offset=-2 / threads=3 / nr=0 / decimate=1 / mbaff=0 / bframes=3 / b_pyramid=0 / b_adapt=1 / b_bias=0 / direct=3 / wpredb=1 / keyint=250 / keyint_min=25 / scenecut=40(pre) / rc=2pass / bitrate=4194 / ratetol=1.0 / qcomp=0.50 / qpmin=10 / qpmax=51 / qpstep=4 / cplxblur=20.0 / qblur=0.5 / vbv_maxrate=24000 / vbv_bufsize=9000 / ip_ratio=1.10 / pb_ratio=1.10 / aq=1:1.00
Language : Russian
Default : Yes
Forced : No
Audio #1
ID : 2
Format : AC-3
Format/Info : Audio Coding 3
Mode extension : CM (complete main)
Format settings, Endianness : Big
Codec ID : A_AC3
Duration : 2h 6mn
Bit rate mode : Constant
Bit rate : 384 Kbps
Channel(s) : 6 channels
Channel positions : Front: L C R, Side: L R, LFE
Sampling rate : 48.0 KHz
Bit depth : 16 bits
Compression mode : Lossy
Stream size : 346 MiB (7%)
Language : Russian
Default : Yes
Forced : No
Audio #2
ID : 3
Format : DTS
Format/Info : Digital Theater Systems
Codec ID : A_DTS
Duration : 2h 6mn
Bit rate mode : Constant
Bit rate : 755 Kbps
Channel(s) : 6 channels
Channel positions : Front: L C R, Side: L R, LFE
Sampling rate : 48.0 KHz
Bit depth : 16 bits
Compression mode : Lossy
Stream size : 681 MiB (14%)
Language : English
Default : No
Forced : No
Text
ID : 4
Format : UTF-8
Codec ID : S_TEXT/UTF8
Codec ID/Info : UTF-8 Plain Text
Language : Russian
Default : Yes
Forced : No
-Парк Юрского периода 2: Затерянный мир / The Lost World: Jurassic Park- Год выпуска: 1997
Страна: США
Жанр: фантастика, боевик, триллер, приключения
Продолжительность: 02:08:41
Перевод: Профессиональный (многоголосый, закадровый)
Режиссер:
  • Стивен Спилберг
В ролях:
  • Джефф Голдблюм, Джулианна Мур, Пит Постлетуэйт, Ричард Аттенборо, Винс Вон, Арлисс Ховард, Ванесса Ли Честер, Петер Стормаре, Харви Джейсон, Ричард Шифф
Описание:
События этого фильма разворачиваются через четыре года после того, что произошло в «Парке Юрского периода». На близлежащем острове динозавры выжили и адаптировались к дикой природе. Но вот находится Некто, кто хочет перевезти их на материк и заработать на этом, не понимая, какими могут быть последствия, и посылает на остров своих людей.
Джон Хэммонд, который потерял контроль над своей компанией, считает, что у него появился шанс исправить свои прошлые ошибки. Он, в свою очередь, снаряжает экспедицию во главе с Яном Малкольмом, чтобы появиться там до высадки наемников.
В результате происходящих событий две эти конфликтующие группы вынуждены объединиться перед лицом смертельной опасности. И, как потом выясняется, времени им отпущено совсем немного. | Качество: HDTVRip
Формат: MKV
Видео кодек: H.264
Аудио кодек: AC3, DTS
Видео: 1268x720, 23,976 кадр/сек, 6549 Кбит/сек
Аудио: AC3, 384 Кбит/сек, 6 каналаов, 48,0 КГц, Russian
Аудио: DTS, 755 Кбит/сек, 6 каналаов, 48,0 КГц, English

Скриншоты

MI

General
Unique ID : 236117141500309159560937158053718478470 (0xB1A281DFB6CFA47E8D28254BFF694E86)
Format : Matroska
Format version : Version 1
File size : 6.91 GiB
Duration : 2h 8mn
Overall bit rate : 7 683 Kbps
Movie name : The Lost World: Jurassic Park II (1997)
Encoded date : UTC 2008-12-22 18:33:56
Writing application : mkvmerge v2.1.0 ('Another Place To Fall') built on Aug 19 2007 13:40:07
Writing library : libebml v0.7.7 + libmatroska v0.8.1
Video
ID : 1
Format : AVC
Format/Info : Advanced Video Codec
Format profile : High@L4.1
Format settings, CABAC : Yes
Format settings, ReFrames : 9 frames
Codec ID : V_MPEG4/ISO/AVC
Duration : 2h 8mn
Bit rate : 6 549 Kbps
Width : 1 268 pixels
Height : 720 pixels
Display aspect ratio : 16:9
Frame rate : 23.976 fps
Color space : YUV
Chroma subsampling : 4:2:0
Bit depth : 8 bits
Scan type : Progressive
Bits/(Pixel*Frame) : 0.299
Stream size : 5.75 GiB (83%)
Writing library : x264 core 65 r1057 5f8a149
Encoding settings : cabac=1 / ref=9 / deblock=1:-3:-3 / analyse=0x3:0x113 / me=umh / subme=9 / psy_rd=0.7:0.3 / mixed_ref=1 / me_range=24 / chroma_me=1 / trellis=2 / 8x8dct=1 / cqm=0 / deadzone=8,6 / chroma_qp_offset=-4 / threads=6 / nr=0 / decimate=1 / mbaff=0 / bframes=3 / b_pyramid=1 / b_adapt=2 / b_bias=0 / direct=1 / wpredb=1 / keyint=250 / keyint_min=25 / scenecut=40(pre) / rc=2pass / bitrate=6549 / ratetol=1.0 / qcomp=0.60 / qpmin=10 / qpmax=51 / qpstep=4 / cplxblur=20.0 / qblur=0.5 / vbv_maxrate=50000 / vbv_bufsize=40000 / ip_ratio=1.40 / pb_ratio=1.30 / aq=1:0.70
Language : Russian
Default : Yes
Forced : No
Audio #1
ID : 2
Format : AC-3
Format/Info : Audio Coding 3
Mode extension : CM (complete main)
Format settings, Endianness : Big
Codec ID : A_AC3
Duration : 2h 8mn
Bit rate mode : Constant
Bit rate : 384 Kbps
Channel(s) : 6 channels
Channel positions : Front: L C R, Side: L R, LFE
Sampling rate : 48.0 KHz
Bit depth : 16 bits
Compression mode : Lossy
Stream size : 353 MiB (5%)
Language : Russian
Default : Yes
Forced : No
Audio #2
ID : 3
Format : DTS
Format/Info : Digital Theater Systems
Codec ID : A_DTS
Duration : 2h 8mn
Bit rate mode : Constant
Bit rate : 755 Kbps
Channel(s) : 6 channels
Channel positions : Front: L C R, Side: L R, LFE
Sampling rate : 48.0 KHz
Bit depth : 24 bits
Compression mode : Lossy
Delay relative to video : 1ms
Stream size : 695 MiB (10%)
Language : English
Default : No
Forced : No
-Парк Юрского периода 3 / Jurassic Park III- Год выпуска: 2001
Страна: США
Жанр: фантастика, боевик, триллер, приключения
Продолжительность: 01:26:33
Перевод: Профессиональный (дублированный)
Язык субтитров: Русский
Режиссер:
  • Джо Джонстон
В ролях:
  • Сэм Нил, Уильям Х. Мэйси, Теа Леони, Алессандро Нивола, Тревор Морган, Майкл Джитер, Джон Дил, Брюс А. Янг, Лора Дерн, Тейлор Николс
Описание:
Герой Сэма Нила, палеонтолог Алан Грант, принимает предложение состоятельного предпринимателя совершить обзорную экскурсию над печально знаменитым островом Сорна на специально нанятом самолете. Мог ли доктор Грант предполагать, что страшная, непредвиденная катастрофа снова заставит его столкнуться со свирепыми плотоядными существами из прошлого?!
Более того, с момента ужасных событий картины «Парк Юрского периода» динозавры стали хитрее, сильнее и несоизмеримо опасней. Начинается новая, стремительная и жуткая гонка на выживание, в сравнении с которой все прошлые похождения доктора Гранта — лишь детские игрушки! | Качество: HDTVRip
Формат: MKV
Видео кодек: H.264
Аудио кодек: AC3
Видео: 1280x720, 23,976 кадр/сек, 6858 Кбит/сек
Аудио: AC3, 384 Кбит/сек, 6 каналаов, 48,0 КГц, Russian

Скриншоты

MI

General
Unique ID : 191018501006795238938312237929126885709 (0x8FB4D339E41204F59F255D69FB2AF94D)
Format : Matroska
Format version : Version 1
File size : 4.37 GiB
Duration : 1h 26mn
Overall bit rate : 7 236 Kbps
Encoded date : UTC 2007-05-19 22:30:28
Writing application : mkvmerge v2.0.2 ('You're My Flame') built on Feb 21 2007 23:40:55
Writing library : libebml v0.7.7 + libmatroska v0.8.1
Attachment : Yes
Video
ID : 1
Format : AVC
Format/Info : Advanced Video Codec
Format profile : High@L5.1
Format settings, CABAC : Yes
Format settings, ReFrames : 11 frames
Codec ID : V_MPEG4/ISO/AVC
Duration : 1h 26mn
Bit rate : 6 858 Kbps
Width : 1 280 pixels
Height : 720 pixels
Display aspect ratio : 16:9
Frame rate : 23.976 fps
Color space : YUV
Chroma subsampling : 4:2:0
Bit depth : 8 bits
Scan type : Progressive
Bits/(Pixel*Frame) : 0.310
Stream size : 4.06 GiB (93%)
Writing library : x264 core 54 svn-635M
Encoding settings : cabac=1 / ref=8 / deblock=1:0:0 / analyse=0x3:0x133 / me=hex / subme=6 / brdo=1 / mixed_ref=1 / me_range=16 / chroma_me=1 / trellis=1 / 8x8dct=1 / cqm=0 / deadzone=21,11 / chroma_qp_offset=0 / threads=2 / nr=0 / decimate=1 / mbaff=0 / bframes=3 / b_pyramid=1 / b_adapt=1 / b_bias=0 / direct=1 / wpredb=1 / bime=1 / keyint=250 / keyint_min=25 / scenecut=40(pre) / rc=2pass / bitrate=6858 / ratetol=1.0 / rceq='blurCplx^(1-qComp)' / qcomp=0.60 / qpmin=10 / qpmax=51 / qpstep=4 / cplxblur=20.0 / qblur=0.5 / ip_ratio=1.40 / pb_ratio=1.30
Language : English
Default : Yes
Forced : No
Audio
ID : 2
Format : AC-3
Format/Info : Audio Coding 3
Mode extension : CM (complete main)
Format settings, Endianness : Big
Codec ID : A_AC3
Duration : 1h 26mn
Bit rate mode : Constant
Bit rate : 384 Kbps
Channel(s) : 6 channels
Channel positions : Front: L C R, Side: L R, LFE
Sampling rate : 48.0 KHz
Bit depth : 16 bits
Compression mode : Lossy
Stream size : 238 MiB (5%)
Language : Russian
Default : Yes
Forced : No
Text
ID : 3
Format : UTF-8
Codec ID : S_TEXT/UTF8
Codec ID/Info : UTF-8 Plain Text
Language : Russian
Default : Yes
Forced : No
Показать сообщения:    

Текущее время: 26-Сен 08:20

Часовой пояс: UTC - 1


Вы не можете начинать темы
Вы не можете отвечать на сообщения
Вы не можете редактировать свои сообщения
Вы не можете удалять свои сообщения
Вы не можете голосовать в опросах
Вы не можете прикреплять файлы к сообщениям
Вы не можете скачивать файлы

!ВНИМАНИЕ!
Сайт не предоставляет электронные версии произведений, а занимается лишь коллекционированием и каталогизацией ссылок, присылаемых и публикуемых на форуме нашими читателями. Если вы являетесь правообладателем какого-либо представленного материала и не желаете, чтобы ссылка на него находилась в нашем каталоге, свяжитесь с нами, и мы незамедлительно удалим ее. Файлы для обмена на трекере предоставлены пользователями сайта, и администрация не несет ответственности за их содержание. Просьба не заливать файлы, защищенные авторскими правами, а также файлы нелегального содержания!