Важное объявление!
У Нас Все раздачи мультитрекерные, при нуле пиров в релизах, можете смело вставать на закачку!
Статистика раздачи
Размер:     |    Зарегистрирован:     |    Скачан:     |   
Нет
 
     
 
 
Автор Сообщение

HUNTER

Стаж:
5 лет 1 месяц
Сообщений:
68439

Репутация: 101

[+] [-]
Вне форума [Профиль] [ЛС]

Парень и его пес / A Boy and His Dog
Страна: США
Жанр: фантастика, триллер, драма, комедия
Год выпуска: 1975
Продолжительность: 01:30:36
Перевод: Авторский (одноголосый закадровый), А. Алексеев
Cубтитры: русские (Jammed), английские
Оригинальная аудиодорожка: английский
Режиссер: Л. К. Джонс / L. Q. Jones
В ролях: Дон Джонсон, Сюзанна Бентон, Джейсон Робардс, Тим МакИнтайр, Элви Мур, Хелен Уинстон, Чарльз МакГроу, Хэл Бэйлор, Рон Файнберг, Майкл Руперт
Описание: Шел 2024 год. После ядерной войны общество раскололось надвое. На радиоактивной поверхности живут одиночки-отбросы, занятые борьбой за выживание. Под землей же все совершенно иначе: скрытые под толстым слоем белил лица, скрытая под толстым слоем законов жизнь. Среди выживших есть парень и его говорящая собака. Пес интеллектуально превосходит своего спутника, и по существу является его воспитателем. Волею случая они оказываются во власти Комитета…

Доп. информация: за работу над дорогой благодарим Linger babe
Исходник: A Boy and His Dog 1975 1080p Blu-ray AVC DTS-HD MA 2.0 @ HDBits
Тип релиза: BDRemux 1080p | sample
Контейнер: MKV
Видео: MPEG-4 AVC Video / 28995 kbps / 1080p / 23.976 fps / 16:9 / High Profile 4.1
Аудио #1: Russian AC3 2ch 48kHz 192Kbps | AVO Алексеев
Аудио #2: English DTS-HD MA / 1896 kbps / 2.0 / 48 kHz / 1896 kbps / 24-bit (DTS Core: 2.0 / 48 kHz / 1509 kbps / 24-bit) | Original
Аудио #3: English AC3 2ch 48kHz 256Kbps | Commentary
Формат субтитров: softsub (SRT)
Главы: есть
MediaInfo
General
Complete name : C:\...\A.Boy.and.His.Dog.1975.1080p.Remux.AVC.Rus.AVO.Eng.mkv
Format : Matroska
Format version : Version 2
File size : 19.8 GiB
Duration : 1h 30mn
Overall bit rate mode : Variable
Overall bit rate : 31.3 Mbps
Movie name : A.Boy.and.His.Dog.1975.1080p.Remux.AVC.Rus.AVO.Eng
Encoded date : UTC 2014-07-12 06:57:17
Writing application : mkvmerge v7.0.0 ('Where We Going') 64bit built on Jun 9 2014 15:16:27
Writing library : libebml v1.3.0 + libmatroska v1.4.1
Video
ID : 1
Format : AVC
Format/Info : Advanced Video Codec
Format profile : High@L4.1
Format settings, CABAC : Yes
Format settings, ReFrames : 3 frames
Format settings, GOP : M=3, N=12
Codec ID : V_MPEG4/ISO/AVC
Duration : 1h 30mn
Bit rate mode : Variable
Bit rate : 28.7 Mbps
Maximum bit rate : 35.0 Mbps
Width : 1 920 pixels
Height : 1 080 pixels
Display aspect ratio : 16:9
Frame rate mode : Constant
Frame rate : 23.976 fps
Standard : NTSC
Color space : YUV
Chroma subsampling : 4:2:0
Bit depth : 8 bits
Scan type : Progressive
Bits/(Pixel*Frame) : 0.578
Stream size : 18.2 GiB (92%)
Title : A Boy and His Dog (1975)
Language : English
Default : Yes
Forced : No
Color primaries : BT.709
Transfer characteristics : BT.709
Matrix coefficients : BT.709
Audio #1
ID : 2
Format : AC-3
Format/Info : Audio Coding 3
Mode extension : CM (complete main)
Format settings, Endianness : Big
Codec ID : A_AC3
Duration : 1h 30mn
Bit rate mode : Constant
Bit rate : 192 Kbps
Channel(s) : 2 channels
Channel positions : Front: L R
Sampling rate : 48.0 KHz
Bit depth : 16 bits
Compression mode : Lossy
Stream size : 124 MiB (1%)
Title : AVO Alekseev
Language : Russian
Default : Yes
Forced : No
Audio #2
ID : 3
Format : DTS
Format/Info : Digital Theater Systems
Format profile : MA / Core
Codec ID : A_DTS
Duration : 1h 30mn
Bit rate mode : Variable
Bit rate : 1 558 Kbps / 1 510 Kbps
Channel(s) : 2 channels
Channel positions : Front: L R
Sampling rate : 48.0 KHz
Bit depth : 24 bits
Compression mode : Lossless / Lossy
Title : Original
Language : English
Default : No
Forced : No
Audio #3
ID : 4
Format : AC-3
Format/Info : Audio Coding 3
Mode extension : CM (complete main)
Format settings, Endianness : Big
Codec ID : A_AC3
Duration : 1h 30mn
Bit rate mode : Constant
Bit rate : 256 Kbps
Channel(s) : 2 channels
Channel positions : Front: L R
Sampling rate : 48.0 KHz
Bit depth : 16 bits
Compression mode : Lossy
Stream size : 166 MiB (1%)
Title : Commentary
Language : English
Default : No
Forced : No
Text #1
ID : 5
Format : UTF-8
Codec ID : S_TEXT/UTF8
Codec ID/Info : UTF-8 Plain Text
Title : Jammed
Language : Russian
Default : No
Forced : No
Text #2
ID : 6
Format : UTF-8
Codec ID : S_TEXT/UTF8
Codec ID/Info : UTF-8 Plain Text
Language : English
Default : No
Forced : No
Menu
00:00:00.000 : en:00:00:00.000
00:00:07.508 : en:00:00:07.508
00:09:14.596 : en:00:09:14.596
00:16:50.760 : en:00:16:50.760
00:27:02.788 : en:00:27:02.788
00:34:32.112 : en:00:34:32.112
00:46:51.225 : en:00:46:51.225
00:56:55.787 : en:00:56:55.787
01:02:33.333 : en:01:02:33.333
01:17:26.642 : en:01:17:26.642
01:24:02.037 : en:01:24:02.037
Скриншоты

_________________
Показать сообщения:    

Текущее время: Сегодня 11:34

Часовой пояс: GMT



Вы не можете начинать темы
Вы не можете отвечать на сообщения
Вы не можете редактировать свои сообщения
Вы не можете удалять свои сообщения
Вы не можете голосовать в опросах
Вы не можете прикреплять файлы к сообщениям
Вы не можете скачивать файлы