Важное объявление!
У Нас Все раздачи мультитрекерные, при нуле пиров в релизах, можете смело вставать на закачку!
 
Автор Сообщение

HUNTER

Стаж:
4 года 5 месяцев
Сообщений:
60874

Репутация: 101

[+] [-]
Вне форума [Профиль] [ЛС]

Паранорман, или Как приручить зомби / ParaNorman«Нормальные люди не становятся героями»-
Страна: США
Жанр: фэнтези, комедия, приключения, семейный
Продолжительность: 01:32:15
Год выпуска: 2012
Перевод: Профессиональный (дублированный)
Русские субтитры: есть
Режиссёр: Крис Батлер / Chris Butler, Сэм Фелл / Sam Fell
Роли озвучивали: Даниил Трещов (Norman Babcock), Лев Аксельрод (Neil), Лина Иванова (Courtney Babcock), Даниил Щебланов (Mitch), Александр Комлев (Alvin), Ирина Киреева (Sandra Babcock), Денис Беспалый (Perry Babcock), Надежда Подъяпольская (Grandma), Алексей Борзунов (The Judge), Анна Денисова (Aggie)-ОписаниеНорман, Паранорман. Единственная надежда полусонного городка в борьбе с полчищами нечисти. Его оружие - супер-мега-дар: умение общаться с призраками. Впрочем, мертвецы - не главная опасность, куда хуже - глупые взрослые с дробовиками наперевес.-
Сэмпл

IMDb: 7.00 (57 795)
Качество: BDRip-AVC BDRemux 1080p
Формат: MKV
Видео: AVC 2288 Kbps 1184 x 494 (2.397) 23.976 fps
Аудио: AC-3 384 Kbps 6 channels, 48.0 KHz Rus
Аудио 2: AC-3 384 Kbps 6 channels, 48.0 KHz Eng
Субтитры: Rus, Eng SRT

MI | Log

Log
x264 [info]: frame I:1000 Avg QP:14.05 size: 88427
x264 [info]: frame P:28971 Avg QP:15.72 size: 26659
x264 [info]: frame B:102740 Avg QP:18.57 size: 7438
x264 [info]: consecutive B-frames: 2.5% 2.0% 8.5% 23.7% 17.7% 28.4% 6.2% 4.9% 1.7% 0.9% 1.2% 1.8% 0.5%
x264 [info]: mb I I16..4: 5.4% 77.2% 17.4%
x264 [info]: mb P I16..4: 0.6% 10.8% 1.6% P16..4: 29.5% 34.2% 13.2% 2.4% 0.2% skip: 7.4%
x264 [info]: mb B I16..4: 0.1% 1.1% 0.2% B16..8: 30.0% 19.0% 3.6% direct: 3.7% skip:42.4% L0:45.4% L1:45.5% BI: 9.1%
x264 [info]: 8x8 transform intra:82.1% inter:58.8%
x264 [info]: coded y,uvDC,uvAC intra: 93.1% 94.5% 84.1% inter: 15.9% 19.6% 7.2%
x264 [info]: i16 v,h,dc,p: 12% 7% 5% 76%
x264 [info]: i8 v,h,dc,ddl,ddr,vr,hd,vl,hu: 9% 7% 6% 10% 14% 13% 13% 13% 14%
x264 [info]: i4 v,h,dc,ddl,ddr,vr,hd,vl,hu: 9% 6% 3% 10% 17% 16% 14% 12% 13%
x264 [info]: i8c dc,h,v,p: 48% 18% 16% 18%
x264 [info]: Weighted P-Frames: Y:6.8% UV:5.3%
x264 [info]: ref P L0: 45.7% 7.0% 18.0% 6.9% 6.1% 4.2% 3.8% 1.9% 1.9% 1.5% 1.5% 1.4% 0.3% 0.0%
x264 [info]: ref B L0: 66.8% 13.1% 6.7% 3.7% 2.9% 2.4% 1.7% 1.1% 0.9% 0.6% 0.3%
x264 [info]: ref B L1: 91.6% 8.4%
x264 [info]: kb/s:2348.57
x264 [total]: encoded 132711 frames, 10.03 fps, 2348.57 kb/s, duration 3:40:34.06
Format                                   : MatroskaFormat version                           : Version 4 / Version 2File size                                : 2.01 GiBDuration                                 : 1h 32mnOverall bit rate                         : 3 118 KbpsEncoded date                             : UTC 2014-09-29 19:06:17Writing application                      : mkvmerge v6.7.0 ('Back to the Ground') 32bit built on Jan  8 2014 15:03:17Writing library                          : libebml v1.3.0 + libmatroska v1.4.1
VideoID : 1Format : AVCFormat/Info : Advanced Video CodecFormat profile : High@L4.1Format settings, CABAC : YesFormat settings, ReFrames : 12 framesCodec ID : V_MPEG4/ISO/AVCDuration : 1h 32mnBit rate : 2 288 KbpsWidth : 1 184 pixelsHeight : 494 pixelsDisplay aspect ratio : 2.40:1Frame rate mode : ConstantFrame rate : 23.976 fpsColor space : YUVChroma subsampling : 4:2:0Bit depth : 8 bitsScan type : ProgressiveBits/(Pixel*Frame) : 0.163Stream size : 1.47 GiB (73%)Writing library : x264 core 142 r2453kMod ea0ca51Encoding settings : cabac=1 / ref=12 / deblock=1:-2:-2 / analyse=0x3:0x133 / me=umh / subme=11 / psy=1 / fade_compensate=0.00 / psy_rd=1.00:0.05 / mixed_ref=1 / me_range=32 / chroma_me=1 / trellis=2 / 8x8dct=1 / cqm=0 / deadzone=21,11 / fast_pskip=0 / chroma_qp_offset=-3 / threads=12 / lookahead_threads=3 / sliced_threads=0 / nr=0 / decimate=1 / interlaced=0 / bluray_compat=0 / constrained_intra=0 / fgo=0 / bframes=12 / b_pyramid=2 / b_adapt=2 / b_bias=0 / direct=1 / weightb=1 / open_gop=0 / weightp=2 / keyint=250 / keyint_min=23 / scenecut=40 / intra_refresh=0 / rc_lookahead=40 / rc=crf / mbtree=0 / crf=17.7000 / qcomp=0.60 / qpmin=0 / qpmax=69 / qpstep=4 / vbv_maxrate=25000 / vbv_bufsize=50000 / crf_max=0.0 / nal_hrd=none / filler=0 / ip_ratio=1.40 / pb_ratio=1.30 / aq=3:0.90Language : EnglishDefault : YesForced : No
Audio #1ID : 2Format : AC-3Format/Info : Audio Coding 3Mode extension : CM (complete main)Format settings, Endianness : BigCodec ID : A_AC3Duration : 1h 32mnBit rate mode : ConstantBit rate : 384 KbpsChannel(s) : 6 channelsChannel positions : Front: L C R, Side: L R, LFESampling rate : 48.0 KHzBit depth : 16 bitsCompression mode : LossyStream size : 253 MiB (12%)Title : DubLanguage : RussianDefault : YesForced : No
Audio #2ID : 3Format : AC-3Format/Info : Audio Coding 3Mode extension : CM (complete main)Format settings, Endianness : BigCodec ID : A_AC3Duration : 1h 32mnBit rate mode : ConstantBit rate : 384 KbpsChannel(s) : 6 channelsChannel positions : Front: L C R, Side: L R, LFESampling rate : 48.0 KHzBit depth : 16 bitsCompression mode : LossyStream size : 253 MiB (12%)Title : OriginalLanguage : EnglishDefault : NoForced : No
Text #1ID : 4Format : UTF-8Codec ID : S_TEXT/UTF8Codec ID/Info : UTF-8 Plain TextLanguage : RussianDefault : NoForced : No
Text #2ID : 5Format : UTF-8Codec ID : S_TEXT/UTF8Codec ID/Info : UTF-8 Plain TextLanguage : EnglishDefault : NoForced : No
Menu00:00:00.000 : en:00:00:00.00000:04:55.420 : en:00:04:55.42000:08:29.426 : en:00:08:29.42600:11:38.865 : en:00:11:38.86500:15:10.576 : en:00:15:10.57600:18:10.673 : en:00:18:10.67300:21:54.146 : en:00:21:54.14600:26:25.501 : en:00:26:25.50100:30:04.970 : en:00:30:04.97000:33:56.117 : en:00:33:56.11700:38:16.920 : en:00:38:16.92000:43:06.542 : en:00:43:06.54200:49:36.849 : en:00:49:36.84900:52:46.789 : en:00:52:46.78900:56:46.194 : en:00:56:46.19401:01:15.964 : en:01:01:15.96401:05:53.575 : en:01:05:53.57501:11:51.057 : en:01:11:51.05701:18:19.486 : en:01:18:19.48601:25:07.394 : en:01:25:07.394

Скриншоты


_________________
Показать сообщения:    

Текущее время: Сегодня 08:41

Часовой пояс: GMT



Вы не можете начинать темы
Вы не можете отвечать на сообщения
Вы не можете редактировать свои сообщения
Вы не можете удалять свои сообщения
Вы не можете голосовать в опросах
Вы не можете прикреплять файлы к сообщениям
Вы не можете скачивать файлы
Наши партнеры: интернет магазин Ивановского трикотажа textilla.ru