Ивановский Торрент трекер
Яндекс.Погода
 

[Цитировать]
HUNTER

Паранормальное явление: Метка Дьявола / Paranormal Activity: The Marked Ones
Страна: США
Жанр: ужасы, триллер
Год выпуска: 2014
Продолжительность: 01:20:43
Перевод: Профессиональный (дублированный) [Лицензия]
Cубтитры: русские, английские, украинские
Оригинальная аудиодорожка: английский
Режиссер: Кристофер Б. Лэндон / Christopher B. Landon
В ролях: Кэти Физерстон, Молли Эфраим, Мередит Итон, Брайан Стил, Эндрю Джейкобс, Хорхе Диаз, Ричард Кебрал, Катрин Торбио, Ноеми Гонзалез, Мика Слот...
Описание: "Паранормальное явление: Метка дьявола" открывает новые горизонты ужаса, заставляя кричать от страха. Оно вернулось, исполненное жаждой мести. И теперь оно нашло новую жертву. Семнадцатилетний Джесси услышал жуткие звуки, доносящиеся из квартиры соседа. Взяв камеру, он надеялся запечатлеть их источник, но столкнулся с древним злом. Оно не успокоится, пока не заполучит душу Джесси.
Бонусы: нет
Меню: русское, статичное, озвученное
Тип релиза: DVD5 (Сжатый)
Контейнер: DVD-Video
Видео: PAL 16:9 (720x576) 6 284 Kbps
Аудио: English (Dolby AC3, 6 ch) 448 Kbps
Аудио 2: Russian (Dolby AC3, 6 ch) 448 Kbps
Аудио 3: Ukrainian (Dolby AC3, 6 ch) 448 Kbps

ИсходникДоп. информация
Обработано в DVDRemake Pro.+Photoshop+Muxman
Видео не сжималось.
Удалёно: Найденные видеозаписи, заставки и предупреждение.
Лишние кнопки затерты и закрыты.
MediaInfo
General
Complete name : D:\_Video\Paranormalnoe.javlenie.Metka.Djavola.2014.DVD5\VIDEO_TS\VTS_06_1.VOB
Format : MPEG-PS
File size : 1 024 MiB
Duration : 18mn 23s
Overall bit rate : 7 783 Kbps
Video
ID : 224 (0xE0)
Format : MPEG Video
Format version : Version 2
Format profile : Main@Main
Format settings, BVOP : Yes
Format settings, Matrix : Custom
Duration : 18mn 23s
Bit rate mode : Variable
Bit rate : 6 284 Kbps
Width : 720 pixels
Height : 576 pixels
Display aspect ratio : 16:9
Frame rate : 25.000 fps
Standard : PAL
Color space : YUV
Chroma subsampling : 4:2:0
Bit depth : 8 bits
Scan type : Progressive
Scan order : Top Field First
Compression mode : Lossy
Bits/(Pixel*Frame) : 0.606
Stream size : 827 MiB (81%)
Audio #1
ID : 189 (0xBD)-128 (0x80)
Format : AC-3
Format/Info : Audio Coding 3
Mode extension : CM (complete main)
Muxing mode : DVD-Video
Duration : 18mn 23s
Bit rate mode : Constant
Bit rate : 448 Kbps
Channel(s) : 6 channels
Channel positions : Front: L C R, Side: L R, LFE
Sampling rate : 48.0 KHz
Bit depth : 16 bits
Compression mode : Lossy
Delay relative to video : -50ms
Stream size : 58.9 MiB (6%)
Audio #2
ID : 189 (0xBD)-129 (0x81)
Format : AC-3
Format/Info : Audio Coding 3
Mode extension : CM (complete main)
Muxing mode : DVD-Video
Duration : 18mn 23s
Bit rate mode : Constant
Bit rate : 448 Kbps
Channel(s) : 6 channels
Channel positions : Front: L C R, Side: L R, LFE
Sampling rate : 48.0 KHz
Bit depth : 16 bits
Compression mode : Lossy
Delay relative to video : -50ms
Stream size : 58.9 MiB (6%)
Audio #3
ID : 189 (0xBD)-130 (0x82)
Format : AC-3
Format/Info : Audio Coding 3
Mode extension : CM (complete main)
Muxing mode : DVD-Video
Duration : 18mn 23s
Bit rate mode : Constant
Bit rate : 448 Kbps
Channel(s) : 6 channels
Channel positions : Front: L C R, Side: L R, LFE
Sampling rate : 48.0 KHz
Bit depth : 16 bits
Compression mode : Lossy
Delay relative to video : -50ms
Stream size : 58.9 MiB (6%)
Text #1
ID : 189 (0xBD)-32 (0x20)
Format : RLE
Format/Info : Run-length encoding
Muxing mode : DVD-Video
Text #2
ID : 189 (0xBD)-33 (0x21)
Format : RLE
Format/Info : Run-length encoding
Muxing mode : DVD-Video
Text #3
ID : 189 (0xBD)-34 (0x22)
Format : RLE
Format/Info : Run-length encoding
Muxing mode : DVD-Video
Menu
DVDInfo
Title: Bob
Size: 4.24 Gb ( 4 442 066 KBytes ) - DVD-5
Enabled regions: 1, 2, 3, 4, 5, 6, 7, 8
VTS_01 :
Play Length:
Video: NTSC 16:9 (720x480) VBR, Auto Pan&Scan
VTS_02 :
Play Length:
Video: PAL 4:3 (720x576) VBR
Subtitles:
Not specified
VTS_03 :
Play Length:
Video: NTSC 16:9 (720x480) VBR, Auto Pan&Scan
VTS_04 :
Play Length:
Video: NTSC 16:9 (720x480) VBR, Auto Pan&Scan
VTS_05 :
Play Length:
Video: NTSC 16:9 (720x480) VBR, Auto Pan&Scan
VTS_06 :
Play Length: 00:00:09+01:20:43
Video: PAL 16:9 (720x576) VBR, Auto Pan&Scan
Audio:
English (Dolby AC3, 6 ch)
Russian (Dolby AC3, 6 ch)
Ukrainian (Dolby AC3, 6 ch)
Subtitles:
English
Russian
Ukrainian
VTS_07 :
Play Length:
Video: NTSC 16:9 (720x480) VBR, Auto Pan&Scan
VTS_08 :
Play Length:
Video: NTSC 16:9 (720x480) VBR, Auto Pan&Scan
VTS_09 :
Play Length:
Video: NTSC 16:9 (720x480) VBR, Auto Pan&Scan
VTS_10 :
Play Length:
Video: NTSC 16:9 (720x480) VBR, Auto Pan&Scan
VTS_11 :
Play Length:
Video: NTSC 16:9 (720x480) VBR, Auto Pan&Scan
VTS_12 :
Play Length:
Video: NTSC 16:9 (720x480) VBR, Auto Pan&Scan
VTS_13 :
Play Length: 00:00:20+00:00:03
Video: PAL 16:9 (720x576) VBR, Auto Pan&Scan
Audio:
English (Dolby AC3, 2 ch)
Subtitles:
English
Russian
Ukrainian
VTS_14 :
Play Length:
Video: NTSC 16:9 (720x480) VBR, Auto Pan&Scan
VTS_15 :
Play Length:
Video: NTSC 16:9 (720x480) VBR, Auto Pan&Scan
VTS_16 :
Play Length:
Video: NTSC 16:9 (720x480) VBR, Auto Pan&Scan
VTS_17 :
Play Length:
Video: NTSC 16:9 (720x480) VBR, Auto Pan&Scan
VTS_18 :
Play Length:
Video: PAL 16:9 (720x576) VBR, Auto Letterboxed
Audio:
Not specified (Dolby AC3, 2 ch)
VTS_19 :
Play Length: 00:00:01
Video: PAL 16:9 (720x576) VBR, Auto Pan&Scan
Audio:
Not specified (Dolby AC3, 2 ch)
VTS_20 :
Play Length:
Video: NTSC 16:9 (720x480) VBR, Auto Pan&Scan
VTS_21 :
Play Length:
Video: PAL 16:9 (720x576) VBR, Auto Letterboxed
Audio:
Not specified (Dolby AC3, 2 ch)
Cкриншот финального проектаСкриншоты менюСкриншотыРаздача от группы:


Показать сообщения:    

Текущее время: 18-Дек 01:10

Часовой пояс: UTC ± 0


Вы не можете начинать темы
Вы не можете отвечать на сообщения
Вы не можете редактировать свои сообщения
Вы не можете удалять свои сообщения
Вы не можете голосовать в опросах
Вы не можете прикреплять файлы к сообщениям
Вы не можете скачивать файлы

!ВНИМАНИЕ!
Сайт не предоставляет электронные версии произведений, а занимается лишь коллекционированием и каталогизацией ссылок, присылаемых и публикуемых на форуме нашими читателями. Если вы являетесь правообладателем какого-либо представленного материала и не желаете, чтобы ссылка на него находилась в нашем каталоге, свяжитесь с нами, и мы незамедлительно удалим ее. Файлы для обмена на трекере предоставлены пользователями сайта, и администрация не несет ответственности за их содержание. Просьба не заливать файлы, защищенные авторскими правами, а также файлы нелегального содержания!