Важное объявление!
У Нас Все раздачи мультитрекерные, при нуле пиров в релизах, можете смело вставать на закачку!
 
Автор Сообщение

HUNTER

Стаж:
4 года 8 месяцев
Сообщений:
62034

Репутация: 101

[+] [-]
Вне форума [Профиль] [ЛС]

Параллельные миры / Upside Down-
Год выпуска: 2012
Страна: Канада, Франция
Жанр: фэнтези, мелодрама
Продолжительность: 01:48:06
Перевод: Профессиональный (дублированный)
Русские субтитры: есть
Оригинальная аудиодорожка: английский-Режиссер: Хуан Диего Соланас / Juan Solanas
В ролях: Кирстен Данст, Джим Стерджесс, Стелла Маив, Нил Напье, Джэйн Хейтмейер, Холли О’Брайэн, Ларри Дэй, Агнешка Вроновска, Джон МакЛарен, Дон Джордан, Джеймс Кидни, Фрэнк М. Эхерн, Хайди Хоукинс, Винсент Мессина, Джесси Шерман.
Описание: Очень давно две планеты притянулись друг к другу, и на обеих планетах живут люди, для каждой из планет есть своё притяжение. На верхней планете царит богатство и благоденствие. На ней создана корпорация, выкачивающая недры второй планеты и взамен предлагающая электроэнергию по неподъёмной для бедных жителей нижней планеты цене. Перемещение людей между планетами жестко контролируется. В центре событий находятся двое людей: она — девушка из богатой семьи из верхнего мира, он — простой человек из нижнего мира, и они любят друг друга. А ещё есть секрет пчелиной пыльцы, которая добывается одновременно на обеих планетах и имеет невероятные свойства.
-
  • Формат 3D Half OverUnder | Вертикальная анаморфная стереопара-Качество: BDRip-AVC | Контейнер: MKV | Рип: Killbrain
    Видео: 1920x1080 (16:9), 23.976 fps, x264@L4.1 ~10500 kbps
    Аудио 1: Russian 48 kHz, AC3, 3/2 (L,C,R,l,r) + LFE ch, 640.00 kbps | BD RUS
    Аудио 2: English 48 kHz, AC3, 3/2 (L,C,R,l,r) + LFE ch, 640.00 kbps | Original
    Субтитры: русские полные, английские полные

    Инфо

    Формат : Matroska
    Версия формата : Version 4 / Version 2
    Размер файла : 8,89 Гбайт
    Продолжительность : 1 ч. 48 м.
    Общий поток : 11,8 Мбит/сек
    Название фильма : Upside Down 3D (2012) by Killbrain
    Дата кодирования : UTC 2013-06-22 19:24:46
    Программа кодирования : mkvmerge v6.2.0 ('Promised Land') built on Apr 28 2013 12:22:01
    Библиотека кодирования : libebml v1.3.0 + libmatroska v1.4.0
    Видео
    Идентификатор : 1
    Формат : AVC
    Формат/Информация : Advanced Video Codec
    Профиль формата : High@L4.1
    Параметр CABAC формата : Да
    Параметр ReFrames формата : 4 кадра
    Идентификатор кодека : V_MPEG4/ISO/AVC
    Продолжительность : 1 ч. 48 м.
    Битрейт : 10,5 Мбит/сек
    Ширина : 1920 пикселей
    Высота : 1080 пикселей
    Соотношение сторон : 16:9
    Режим частоты кадров : Постоянный
    Частота кадров : 23,976 кадра/сек
    Цветовое пространство : YUV
    Субдискретизация насыщенности : 4:2:0
    Битовая глубина : 8 бит
    Тип развёртки : Прогрессивная
    Бит/(Пиксели*Кадры) : 0.211
    Размер потока : 7,74 Гбайт (87%)
    Заголовок : Upside Down 3D (2012)
    Библиотека кодирования : x264 core 132 r2310 76a5c3a
    Настройки программы : cabac=1 / ref=4 / deblock=1:-2:-2 / analyse=0x3:0x113 / me=umh / subme=9 / psy=1 / psy_rd=1.00:0.15 / mixed_ref=1 / me_range=16 / chroma_me=1 / trellis=2 / 8x8dct=1 / cqm=0 / deadzone=21,11 / fast_pskip=0 / chroma_qp_offset=-3 / threads=3 / lookahead_threads=1 / sliced_threads=0 / nr=0 / decimate=0 / interlaced=0 / bluray_compat=0 / constrained_intra=0 / bframes=6 / b_pyramid=2 / b_adapt=2 / b_bias=0 / direct=3 / weightb=1 / open_gop=0 / weightp=2 / keyint=240 / keyint_min=24 / scenecut=40 / intra_refresh=0 / rc_lookahead=60 / rc=2pass / mbtree=0 / bitrate=10500 / ratetol=1.0 / qcomp=0.65 / qpmin=0 / qpmax=69 / qpstep=4 / cplxblur=20.0 / qblur=0.5 / vbv_maxrate=40000 / vbv_bufsize=30000 / nal_hrd=none / frame-packing=4 / ip_ratio=1.40 / pb_ratio=1.30 / aq=1:0.70
    Язык : English
    Default : Да
    Forced : Нет
    Аудио #1
    Идентификатор : 2
    Формат : AC-3
    Формат/Информация : Audio Coding 3
    Расширение режима : CM (complete main)
    Параметр Endianness формата : Big
    Идентификатор кодека : A_AC3
    Продолжительность : 1 ч. 48 м.
    Вид битрейта : Постоянный
    Битрейт : 640 Кбит/сек
    Каналы : 6 каналов
    Расположение каналов : Front: L C R, Side: L R, LFE
    Частота : 48,0 КГц
    Битовая глубина : 16 бит
    Метод сжатия : С потерями
    Размер потока : 495 Мбайт (5%)
    Заголовок : AC3 / 5.1 ch / 640 kbps / Русский дубляж, BD2D RUS
    Язык : Russian
    Default : Да
    Forced : Нет
    Аудио #2
    Идентификатор : 3
    Формат : AC-3
    Формат/Информация : Audio Coding 3
    Расширение режима : CM (complete main)
    Параметр Endianness формата : Big
    Идентификатор кодека : A_AC3
    Продолжительность : 1 ч. 48 м.
    Вид битрейта : Постоянный
    Битрейт : 640 Кбит/сек
    Каналы : 6 каналов
    Расположение каналов : Front: L C R, Side: L R, LFE
    Частота : 48,0 КГц
    Битовая глубина : 16 бит
    Метод сжатия : С потерями
    Размер потока : 495 Мбайт (5%)
    Заголовок : AC3 / 5.1 ch / 640 kbps / Английский Original, BD3D
    Язык : English
    Default : Нет
    Forced : Нет
    Текст #1
    Идентификатор : 4
    Формат : UTF-8
    Идентификатор кодека : S_TEXT/UTF8
    Идентификатор кодека/Информация : UTF-8 Plain Text
    Заголовок : Full, Voronine
    Язык : Russian
    Default : Нет
    Forced : Нет
    Текст #2
    Идентификатор : 5
    Формат : UTF-8
    Идентификатор кодека : S_TEXT/UTF8
    Идентификатор кодека/Информация : UTF-8 Plain Text
    Заголовок : SDH, BD3D
    Язык : English
    Default : Нет
    Forced : Нет
    Меню
    00:00:00.000 : :Chapter 01
    00:08:00.438 : :Chapter 02
    00:14:32.246 : :Chapter 03
    00:22:38.357 : :Chapter 04
    00:35:24.122 : :Chapter 05
    00:42:27.086 : :Chapter 06
    00:50:48.295 : :Chapter 07
    01:05:32.261 : :Chapter 08
    01:14:12.656 : :Chapter 09
    01:23:08.858 : :Chapter 10
    01:31:19.807 : :Chapter 11
    01:38:59.600 : :Chapter 12

    Скриншоты


  • _________________
    Показать сообщения:    

    Текущее время: Сегодня 00:03

    Часовой пояс: GMT



    Вы не можете начинать темы
    Вы не можете отвечать на сообщения
    Вы не можете редактировать свои сообщения
    Вы не можете удалять свои сообщения
    Вы не можете голосовать в опросах
    Вы не можете прикреплять файлы к сообщениям
    Вы не можете скачивать файлы
    Наши партнеры: интернет магазин Ивановского трикотажа textilla.ru