Важное объявление!
У Нас Все раздачи мультитрекерные, при нуле пиров в релизах, можете смело вставать на закачку!
 
Автор Сообщение

HUNTER

Стаж:
4 года 7 месяцев
Сообщений:
61649

Репутация: 101

[+] [-]
Вне форума [Профиль] [ЛС]

Парад Победы, Самара, 9 мая 2013
Год выпуска: 2013
Страна: Россия
Жанр: документальный, военный парад
Продолжительность: 44:33
Язык: русский
Описание: 9 Мая 2013
Парад Победы
Самара
Трансляция с площади Куйбышева
Сэмпл: http://multi-up.com/863903
качество: TVRip
формат: MP4
Видео: H.264, 640x480, 50 fps, 1525 kbps; 22.0 crf
Аудио: AAC, stereo, 48 KHz, 96 kbps; q=0.41

MediaInfo

General
Complete name : C:\Парад Победы, Самара, 9 мая 2013.mp4
Format : MPEG-4
Format profile : Base Media
Codec ID : isom
File size : 519 MiB
Duration : 44mn 33s
Overall bit rate mode : Variable
Overall bit rate : 1 627 Kbps
Encoded date : UTC 2013-05-09 18:17:47
Tagged date : UTC 2013-05-09 18:17:47
Video
ID : 1
Format : AVC
Format/Info : Advanced Video Codec
Format profile : High@L3.1
Format settings, CABAC : Yes
Format settings, ReFrames : 6 frames
Codec ID : avc1
Codec ID/Info : Advanced Video Coding
Duration : 44mn 33s
Bit rate : 1 525 Kbps
Maximum bit rate : 5 258 Kbps
Width : 640 pixels
Height : 480 pixels
Display aspect ratio : 4:3
Frame rate mode : Constant
Frame rate : 50.000 fps
Color space : YUV
Chroma subsampling : 4:2:0
Bit depth : 8 bits
Scan type : Progressive
Bits/(Pixel*Frame) : 0.099
Stream size : 486 MiB (94%)
Writing library : x264 core 130 r2273 b3065e6
Encoding settings : cabac=1 / ref=6 / deblock=1:0:0 / analyse=0x3:0x113 / me=umh / subme=10 / psy=1 / psy_rd=1.00:0.00 / mixed_ref=0 / me_range=20 / chroma_me=1 / trellis=2 / 8x8dct=1 / cqm=0 / deadzone=21,11 / fast_pskip=0 / chroma_qp_offset=-3 / threads=3 / lookahead_threads=1 / sliced_threads=0 / nr=0 / decimate=1 / interlaced=0 / bluray_compat=0 / constrained_intra=0 / bframes=4 / b_pyramid=2 / b_adapt=2 / b_bias=0 / direct=1 / weightb=1 / open_gop=0 / weightp=2 / keyint=1000 / keyint_min=40 / scenecut=40 / intra_refresh=0 / rc_lookahead=50 / rc=crf / mbtree=1 / crf=22.0 / qcomp=0.60 / qpmin=10 / qpmax=51 / qpstep=7 / vbv_maxrate=16000 / vbv_bufsize=12000 / crf_max=0.0 / nal_hrd=none / ip_ratio=1.30 / aq=1:1.00
Encoded date : UTC 2013-05-09 11:45:39
Tagged date : UTC 2013-05-09 18:18:13
Audio
ID : 2
Format : AAC
Format/Info : Advanced Audio Codec
Format profile : LC
Codec ID : 40
Duration : 44mn 33s
Bit rate mode : Variable
Bit rate : 96.0 Kbps
Maximum bit rate : 121 Kbps
Channel(s) : 2 channels
Channel positions : Front: L R
Sampling rate : 48.0 KHz
Compression mode : Lossy
Stream size : 30.5 MiB (6%)
Language : Russian
Encoded date : UTC 2013-05-09 18:10:37
Tagged date : UTC 2013-05-09 18:18:13

Скриншоты


_________________
Показать сообщения:    

Текущее время: Сегодня 21:51

Часовой пояс: GMT



Вы не можете начинать темы
Вы не можете отвечать на сообщения
Вы не можете редактировать свои сообщения
Вы не можете удалять свои сообщения
Вы не можете голосовать в опросах
Вы не можете прикреплять файлы к сообщениям
Вы не можете скачивать файлы
Наши партнеры: интернет магазин Ивановского трикотажа textilla.ru