Ивановский Торрент трекер
Яндекс.Погода
 

[Цитировать]
HUNTER

Парад Победы. Москва. Красная Площадь
Год выпуска: 2013
Страна: Россия
Студия: ВГТРК, Первый канал
Жанр: Военный парад
Продолжительность: 01:00:54
Перевод: Не требуется
Русские субтитры: нет
Описание: Военный парад в ознаменование 68-й годовщины Победы в Великой Отечественной войне пройдет на Красной площади в Москве. В составе механизированной колонны парадного расчета по брусчатке, как и в прошлом году, пройдут три автономных пусковых установки подвижного грунтового ракетного комплекса "Тополь-М“, а в небе пролетят 68 самолетов и вертолетов ВВС - по числу лет, пошедших с 9 мая 1945 года.
Источник: собственный рип
Доп. информация: Релиз -

Рип чистый. Без посторонних надписей. Выкладывается как есть.
Качество: DVB
Формат: MPG
Видео кодек: MPG2
Аудио кодек: MP2
Видео: 720x576 @ (4:3) 25.00fps 5 810 Kbps, 0.560 bit/pixel
Аудио: MPEG Audio 48000Hz stereo 192 Кбит/сек 2 channels

Скриншоты


Скринлист

MI

GeneralComplete name : C:\Парад Победы. Москва. Красная Площадь (2013, Военный парад, DVB) (Россия 1) (MYDIMKA).mpgFormat : MPEG-PSFile size : 2.60 GiBDuration : 1h 0mnOverall bit rate mode : VariableOverall bit rate : 6 118 Kbps
VideoID : 224 (0xE0)Format : MPEG VideoFormat version : Version 2Format profile : Main@MainFormat settings, BVOP : YesFormat settings, Matrix : CustomFormat settings, GOP : M=3, N=36Duration : 1h 0mnBit rate mode : VariableBit rate : 5 804 KbpsMaximum bit rate : 15.0 MbpsWidth : 720 pixelsHeight : 576 pixelsDisplay aspect ratio : 4:3Frame rate : 25.000 fpsStandard : PALColor space : YUVChroma subsampling : 4:2:0Bit depth : 8 bitsScan type : InterlacedScan order : Top Field FirstCompression mode : LossyBits/(Pixel*Frame) : 0.560Time code of first frame : 00:00:00:00Time code source : Group of pictures headerStream size : 2.47 GiB (95%)
AudioID : 192 (0xC0)Format : MPEG AudioFormat version : Version 1Format profile : Layer 2Duration : 1h 0mnBit rate mode : ConstantBit rate : 192 KbpsChannel(s) : 2 channelsSampling rate : 48.0 KHzCompression mode : LossyDelay relative to video : -22msStream size : 83.6 MiB (3%)


Показать сообщения:    

Текущее время: 16-Дек 01:44

Часовой пояс: UTC ± 0


Вы не можете начинать темы
Вы не можете отвечать на сообщения
Вы не можете редактировать свои сообщения
Вы не можете удалять свои сообщения
Вы не можете голосовать в опросах
Вы не можете прикреплять файлы к сообщениям
Вы не можете скачивать файлы

!ВНИМАНИЕ!
Сайт не предоставляет электронные версии произведений, а занимается лишь коллекционированием и каталогизацией ссылок, присылаемых и публикуемых на форуме нашими читателями. Если вы являетесь правообладателем какого-либо представленного материала и не желаете, чтобы ссылка на него находилась в нашем каталоге, свяжитесь с нами, и мы незамедлительно удалим ее. Файлы для обмена на трекере предоставлены пользователями сайта, и администрация не несет ответственности за их содержание. Просьба не заливать файлы, защищенные авторскими правами, а также файлы нелегального содержания!