Важное объявление!
У Нас Все раздачи мультитрекерные, при нуле пиров в релизах, можете смело вставать на закачку!
 
Автор Сообщение

димитри37

Стаж:
3 года 10 месяцев
Сообщений:
1237

Репутация: 127

[+] [-]
Вне форума [Профиль] [ЛС]

Папины дочки. Суперневесты
Год выпуска: 2012
Производство:"ВБД Груп" по заказу СТС
Жанр: ситком
Продолжительность: 00:24:00
Субтитры: нет
Режиссёр: Кирилл Папакуль
В ролях: Мирослава Карпович, Анастасия Сиваева, Дарья Мельникова, Елизавета Арзамасова, Екатерина Старшова, Андрей Леонов, Нонна Гришаева, Ольга Волкова, Александр Самойленко, Татьяна Орлова, Михаил Казаков, Филипп Бледный, Александр Олешко, Михаил Башкатов, Сергей Лазарев, Иван Николаев
Описание: Главное событие новых серий «Папиных дочек» — воссоединение семьи Васнецовых! Теперь вся семья, включая Папу, Маму, пять дочек, Веника и даже Олигарха, будет жить в загородном доме в местечке с забавным названием Лохово. С переездом поменяется жизнь каждого члена семьи Васнецовых. Маша устроится на работу... актрисой! Даша погрузится в семейную жизнь и воспитание дочки Сони. Галина Сергеевна начнет встречаться с принцем, причем с настоящим! У Жени тоже случится настоящая любовь, но ей снова придется покинуть отчий дом. Ну, а Пуговка… Ей, как всегда, простят все шалости, чем она беззастенчиво будет пользоваться.Папу с мамой ждет немало хлопот в новом сезоне, ведь они воспитывают маленького сына и пять дочек… Но, несмотря на семейные хлопоты, в их жизни найдется место и романтическим отношениям.
Реклама ОТСУТСТВУЕТ!
Релиз: nikolspup Кинозал.ТВ
Сэмпл: multi-up
Качество: SATRip
Формат: AVI
Видео кодек: XviD
Аудио кодек: MP3
Видео: 720x384 (1.88:1), 25 fps, XviD build 50 ~1500 kbps avg, 0.22 bit/pixel
Аудио: 48 kHz, AC3 Dolby Digital, 2/0 (L,R) ch, ~192 kbps

MI

Общее
Полное имя : Papiny.dochki.Supernevesty.(409).2012.XviD.SATRip.GeneralFilm.avi
Формат : AVI
Формат/Информация : Audio Video Interleave
Размер файла : 295 Мбайт
Продолжительность : 24 м.
Общий поток : 1702 Кбит/сек
Программа кодирования : VirtualDubMod 1.5.10.3 | www.virtualdub-fr.org || (build 2550/release)
Библиотека кодирования : VirtualDubMod build 2550/release
Видео
Идентификатор : 0
Формат : MPEG-4 Visual
Профиль формата : Advanced Simple@L5
Параметр BVOP формата : 2
Параметр QPel формата : Нет
Параметр GMC формата : Без точки перехода
Параметр матрицы формата : Выборочная
Идентификатор кодека : XVID
Идентификатор кодека/Подсказка : XviD
Продолжительность : 24 м.
Битрейт : 1500 Кбит/сек
Ширина : 720 пикселей
Высота : 384 пикселя
Соотношение сторон : 1,85:1
Частота кадров : 25,000 кадров/сек
Цветовое пространство : YUV
Субдискретизация насыщенности : 4:2:0
Битовая глубина : 8 бит
Тип развёртки : Прогрессивная
Метод сжатия : С потерями
Бит/(Пиксели*Кадры) : 0.217
Размер потока : 260 Мбайт (88%)
Библиотека кодирования : XviD 1.2.1 (UTC 2008-12-04)
Аудио
Идентификатор : 1
Формат : AC-3
Формат/Информация : Audio Coding 3
Расширение режима : CM (complete main)
Параметр Endianness формата : Big
Идентификатор кодека : 2000
Продолжительность : 24 м.
Вид битрейта : Постоянный
Битрейт : 192 Кбит/сек
Каналы : 2 канала
Расположение каналов : Front: L R
Частота : 48,0 КГц
Битовая глубина : 16 бит
Метод сжатия : С потерями
Размер потока : 33,3 Мбайт (11%)
Выравнивание : Разделение по промежуткам
Продолжительность промежутка : 40 мс. (1,00 видеокадр)
Время предзагрузки промежутка : 500 мс.

Скриншоты

Раздача ведётся путём добавления новых серий

Раздача ведётся путём добавления новых серий; при каждом добавлении создаётся новый торрент. Чтобы начать докачку новой серии, пользователям необходимо сделать следующее:
(1) остановить скачивание,
(2) удалить старый торрент у себя из клиента (старые серии удалять не надо),
(3) скачать новый торрент и запустить его у себя в клиенте вместо старого, при этом указать клиенту путь в старую папку куда и должно происходить скачивание новых серий.
Ваш клиент при этом должен произвести хеширование (проверку) старой папки (если не производит сам - помогите ему сделать это), и будет докачивать только те серии которых у вас ещё нет. Старые серии при этом не удаляются, а продолжают раздаваться!
Eсли вы уже удалили старые серии, то предотвратить повторную закачку старых серий можно, отжав галочку в соответствующих местах при запуске нового торрента. По возможности, желательно не удалять старые серии как можно дольше чтобы релизёр не столько продолжал раздавать старые серии, а смог сконцентрироваться на новых.
Все раздачи сериала
Показать сообщения:    

Текущее время: Сегодня 16:12

Часовой пояс: GMT



Вы не можете начинать темы
Вы не можете отвечать на сообщения
Вы не можете редактировать свои сообщения
Вы не можете удалять свои сообщения
Вы не можете голосовать в опросах
Вы не можете прикреплять файлы к сообщениям
Вы не можете скачивать файлы
Наши партнеры: интернет магазин Ивановского трикотажа textilla.ru