Важное объявление!
У Нас Все раздачи мультитрекерные, при нуле пиров в релизах, можете смело вставать на закачку!
 
Автор Сообщение

HUNTER

Стаж:
4 года 5 месяцев
Сообщений:
60874

Репутация: 101

[+] [-]
Вне форума [Профиль] [ЛС]

Папа - привидение / Папа - призрак / Ghost Dad
-Страна: США
Жанр: Фэнтези, комедия
Год выпуска: 1990
Продолжительность: 01:23:39-Перевод: Профессиональный (многоголосый, закадровый) СТС
Перевод: Профессиональный (многоголосый, закадровый) Universal
Перевод: Авторский (одноголосый, закадровый) Вартан Дохалов
Cубтитры: английские
Оригинальная аудиодорожка: английский-Режиссер: Сидни Пуатье / Sidney Poitier-В ролях: Билл Косби, Кимберли Расселл, Денис Николас, Йен Баннен, Кристин Эберсоул, Бэрри Корбин, Салим Грант, Брук Фонтейн, Дэкин Мэтьюз, Дана Эшбрук-Описание:
Билл Косби играет в этой доброй комедии отца-одиночку, погибшего в автомобильной катастрофе и задержавшегося на этом свете в качестве призрака. Видеть его можно только в темноте, и времени у него, чтобы уладить земные дела и позаботиться о трех детях, очень мало. Рекомендуется для семейного просмотра. (Иванов М.)-Сэмпл: Скачать-Тип релиза: WEB-DL 720p
Контейнер: MKV-Видео: 1280x690 (1.85:1); 4080 Kbps; 23.976 fps; 0.178 bpp
Аудио 1: Russian; AC3; 48.0 KHz; 2ch; 192 Kbps MVO CTC
Аудио 2: Russian; AC3; 48.0 KHz; 2ch; 192 Kbps MVO Universal
Аудио 3: Russian; AC3; 48.0 KHz; 2ch; 192 Kbps AVO Вартан Дохалов
Аудио 4: English; AAC; 48.0 KHz; 2ch; 160 Kbps

MediaInfo

Format : Matroska
Format version : Version 4 / Version 2
File size : 2.82 GiB
Duration : 1h 23mn
Overall bit rate : 4 830 Kbps
Encoded date : UTC 2015-11-19 16:58:04
Writing application : mkvmerge v8.3.0 ('Over the Horizon') 64bit
Writing library : libebml v1.3.1 + libmatroska v1.4.2
Attachements : poster.jpg
DURATION : 01:23:43.712000000
NUMBER_OF_FRAMES : 156991
NUMBER_OF_BYTES : 120569088
_STATISTICS_WRITING_APP : mkvmerge v8.3.0 ('Over the Horizon') 64bit
_STATISTICS_WRITING_DATE_UT : 2015-11-19 16:58:04
_STATISTICS_TAGS : BPS DURATION NUMBER_OF_FRAMES NUMBER_OF_BYTES
Video
ID : 1
Format : AVC
Format/Info : Advanced Video Codec
Format profile : High@L3.1
Format settings, CABAC : No
Format settings, ReFrames : 2 frames
Codec ID : V_MPEG4/ISO/AVC
Duration : 1h 23mn
Width : 1 280 pixels
Height : 690 pixels
Display aspect ratio : 1.85:1
Frame rate mode : Constant
Frame rate : 23.976 fps
Color space : YUV
Chroma subsampling : 4:2:0
Bit depth : 8 bits
Scan type : Progressive
Language : English
Default : Yes
Forced : No
Color range : Limited
Color primaries : BT.709
Transfer characteristics : BT.709
Matrix coefficients : BT.709
Audio #1
ID : 2
Format : AC-3
Format/Info : Audio Coding 3
Mode extension : CM (complete main)
Format settings, Endianness : Big
Codec ID : A_AC3
Duration : 1h 23mn
Bit rate mode : Constant
Bit rate : 192 Kbps
Channel(s) : 2 channels
Channel positions : Front: L R
Sampling rate : 48.0 KHz
Compression mode : Lossy
Stream size : 115 MiB (4%)
Title : MVO СТС
Language : Russian
Default : Yes
Forced : No
Audio #2
ID : 3
Format : AC-3
Format/Info : Audio Coding 3
Mode extension : CM (complete main)
Format settings, Endianness : Big
Codec ID : A_AC3
Duration : 1h 23mn
Bit rate mode : Constant
Bit rate : 192 Kbps
Channel(s) : 2 channels
Channel positions : Front: L R
Sampling rate : 48.0 KHz
Compression mode : Lossy
Stream size : 115 MiB (4%)
Title : MVO Universal
Language : Russian
Default : No
Forced : No
Audio #3
ID : 4
Format : AC-3
Format/Info : Audio Coding 3
Mode extension : CM (complete main)
Format settings, Endianness : Big
Codec ID : A_AC3
Duration : 1h 23mn
Bit rate mode : Constant
Bit rate : 192 Kbps
Channel(s) : 2 channels
Channel positions : Front: L R
Sampling rate : 48.0 KHz
Compression mode : Lossy
Stream size : 115 MiB (4%)
Title : AVO Дохалов
Language : Russian
Default : No
Forced : No
Audio #4
ID : 5
Format : AAC
Format/Info : Advanced Audio Codec
Format profile : LC
Codec ID : A_AAC
Duration : 1h 23mn
Channel(s) : 2 channels
Channel positions : Front: L R
Sampling rate : 48.0 KHz
Compression mode : Lossy
Language : English
Default : No
Forced : No
Text
ID : 6
Format : UTF-8
Codec ID : S_TEXT/UTF8
Codec ID/Info : UTF-8 Plain Text
Language : English
Default : No
Forced : No

Скриншоты


_________________
Показать сообщения:    

Текущее время: Сегодня 02:34

Часовой пояс: GMT



Вы не можете начинать темы
Вы не можете отвечать на сообщения
Вы не можете редактировать свои сообщения
Вы не можете удалять свои сообщения
Вы не можете голосовать в опросах
Вы не можете прикреплять файлы к сообщениям
Вы не можете скачивать файлы
Наши партнеры: интернет магазин Ивановского трикотажа textilla.ru