Папа напрокат (Артемий Литвиненко) [2008, Романтическая комедия, HDTV 1080i] Original Rus :: Ивановский Торрент трекер
Важное объявление!
У Нас Все раздачи мультитрекерные, при нуле пиров в релизах, можете смело вставать на закачку!
Статистика раздачи
Размер:     |    Зарегистрирован:     |    Скачан:     |   
Нет
 
     
 
 
Автор Сообщение

HUNTER

Стаж:
4 года 11 месяцев
Сообщений:
66090

Репутация: 101

[+] [-]
Вне форума [Профиль] [ЛС]

Папа напрокат
Жанр: Романтическая комедия
Год выпуска: 2008
Продолжительность: 01:33:32
Cубтитры: нет
Оригинальная аудиодорожка: русский
Режиссер: Артемий Литвиненко
В ролях: Алена Бабенко, Мирослав Белоногий, Сергей Гармаш, Ирма Витовская, Александр Перков, Олег Савкин, Ксения Николаева, Плашенко Тамара, Тритенко Алексей
Описание: Молодая женщина Ирина, бизнес-вумен, одна воспитывает сына Кирилла 10-и лет. И все вроде бы хорошо: есть деньги, квартира в центре, сын учится в колледже.… Но мальчику катастрофически не хватает отца. Он завидует сверстникам, у которых есть папа и очень страдает…Толя, небритый, плохо одетый мужчина 45-ти лет, убегает от преследователей. Он забегает в первый попавшийся подъезд, и видит Кирилла, заходящего в свою квартиру. Толя зажимает Кириллу рот, вталкивает его в прихожую и закрывает дверь, попутно пытаясь успокоить мальчика фразой: «Тихо, сынок, я из милиции»Ребенок ошибочно принимает Толю за своего отца. Из осторожных расспросов выясняется, что мама Кирилла на работе и Толя решает воспользоваться ситуацией. Кушая и выпивая, он путано объясняет мальчику, где он якобы все это время пропадал.Итак, Толя – оперуполномоченный, долго распутывавший дело с наркотиками, сейчас следит за верхушкой мафии под прикрытием (поэтому в таком виде). Кирилл говорит, что скоро придет мама, и что она страшно обрадуется. Толя нервничает, начинает собираться и убеждает Кирилла, что маме пока ничего не говорить не нужно – может сорваться расследование. Кирилл спрашивает, когда они снова увидятся. Толя говорит, что может завтра, но что бы ни одна живая душа не знала о его появлении.Так продолжается неделю – время после колледжа и до прихода мамы Кирилл проводит с «папой». «Папа» ест, пьет, развлекается на всю катушку. Постепенно роль «отца» ему начинает даже нравиться, но основное для него – возможность «перекантоваться». Мама видит, что Кирилл изменился в лучшую сторону, радуется, но не понимает причин, пока однажды не приходит домой раньше времени…
Тип релиза: HDTV 1080i
Контейнер: TS
Видео: 1920 x 1080 (1.778) at 25.000 fps AVC at 5827 Кбит/сек
Аудио: MP2 Audio at 192 Кбит/сек 2 канала, 48,0 КГц

MediaInfo

Общее
Идентификатор : 16 (0x10)
Полное имя : H:\HDTV Фильмы\papa naprokat.ts
Формат : MPEG-TS
Размер файла : 4,14 Гбайт
Продолжительность : 1 ч. 33 м.
Общий поток : 6334 Кбит/сек
Видео
Идентификатор : 323 (0x143)
Идентификатор меню : 12103 (0x2F47)
Формат : AVC
Формат/Информация : Advanced Video Codec
Профиль формата : Main@L4.0
Параметр CABAC формата : Да
Параметр ReFrames формата : 4 кадра
Идентификатор кодека : 27
Продолжительность : 1 ч. 33 м.
Битрейт : 5827 Кбит/сек
Ширина : 1920 пикс.
Высота : 1080 пикс.
Соотношение сторон : 16:9
Частота кадров : 25,000 кадр/сек
Стандарт вещания : PAL
Цветовое пространство : YUV
Подвыборка цветности : 4:2:0
Битовая глубина : 8 бит
Тип развёртки : Чересстрочная
Порядок развёртки : Верхнее поле первое
Бит/(Пиксели*Кадры) : 0.112
Размер потока : 3,81 Гбайт (92%)
Основные цвета : BT.709-5, BT.1361, IEC 61966-2-4, SMPTE RP177
Характеристики трансфера : BT.709-5, BT.1361
Коэффициенты матрицы : BT.709-5, BT.1361, IEC 61966-2-4 709, SMPTE RP177
Аудио
Идентификатор : 403 (0x193)
Идентификатор меню : 12103 (0x2F47)
Формат : MPEG Audio
Версия формата : Version 1
Профиль формата : Layer 2
Идентификатор кодека : 4
Продолжительность : 1 ч. 33 м.
Вид битрейта : Постоянный
Битрейт : 192 Кбит/сек
Каналы : 2 канала
Частота : 48,0 КГц
Метод сжатия : С потерями
Задержка видео : 42 мс.
Размер потока : 128 Мбайт (3%)
Язык : std
Язык, дополнительно : Clean effects

Скриншоты


_________________
Показать сообщения:    

Текущее время: Сегодня 02:16

Часовой пояс: GMT



Вы не можете начинать темы
Вы не можете отвечать на сообщения
Вы не можете редактировать свои сообщения
Вы не можете удалять свои сообщения
Вы не можете голосовать в опросах
Вы не можете прикреплять файлы к сообщениям
Вы не можете скачивать файлы