Важное объявление!
У Нас Все раздачи мультитрекерные, при нуле пиров в релизах, можете смело вставать на закачку!
Статистика раздачи
Размер:     |    Зарегистрирован:     |    Скачан:     |   
Нет
 
     
 
 
Автор Сообщение

HUNTER

Стаж:
5 лет
Сообщений:
67968

Репутация: 101

[+] [-]
Вне форума [Профиль] [ЛС]

«Британская империя наносит ответный удар»-Папашина армия / Dad's Army
-Год выпуска: 2016
Страна: Великобритания
Студия: Universal Pictures
Жанр: комедия, военный
Продолжительность: 01:39:53
Перевод:
  • Профессиональный (дублированный) Blu-ray CEE / UPI
  • Любительский (многоголосый закадровый) Paradox
Cубтитры: русские, украинские, английские
Оригинальная аудиодорожка: английский-Режиссер: Оливер Паркер / Oliver Parker-В ролях: Билл Найи, Кэтрин Зета-Джонс, Тоби Джонс, Том Кортни, Майкл Гэмбон, Блейк Харрисон, Дэниэл Мейс, Билл Патерсон, Марк Тэнди, Расселл Балог и другие.-Роли дублировали (озвучивали):
  • Blu-ray CEE: Андрей Ташков, Ирина Киреева, Константин Карасик, Олег Форостенко, Рудольф Панков, Евгений Вальц, Даниил Эльдаров, Василий Бочкарев, Вадим Медведев, Марианна Шульц, Игорь Старосельцев, Марина Бакина, Александра Назарова, Анатолий Кот, Евгения Ваган, Ольга Плетнёва, Нина Лунева, Антон Савенков, Любовь Германова, Сергей Чихачев, Егор Евдокимов и другие.
  • Paradox: Анна Помигуева, Варвара Чабан, Владимир Рыбальченко, Даниил Эльдаров, Александр Зачиняев, Сергей Богомазов, Ксения Просветова.
-Описание: Англия. Вторая мировая война. Журналистка для освещения военных действий отправляется в прибрежный город, где располагается взвод, охраняющий побережье….-Качество: BDRip 720p |VietHD|
Формат: MKV
Видео кодек: H.264
Аудио кодек: DTS
Видео: H.264, 1280x536 (2.40:1), 23.976 fps, ~6008 kbps, 0.365 bit/pixel
Аудио:
  • русская |Blu-ray CEE|: DTS, 48 kHz, 6 ch, 768 kbps
    русская |Paradox|: DTS, 48 kHz, 6 ch, 1509 kbps
  • английская |Оригинал|: DTS, 48 kHz, 6 ch, 1509 kbps
-Сэмпл \ Кинопоиск-

Скриншоты

Media Info

Код:
General
Unique ID                      : 208717889029941655817789261085295906002 (0x9D059A6E0401FE7A94EFEC3DA69E0CD2)
Complete name                  : E:\Video\HD\Movies (HD)\Dad's Army (2016) (BDRip 720p).mkv
Format                         : Matroska
Format version                 : Version 4 / Version 2
File size                      : 6.97 GiB
Duration                       : 1h 39mn
Overall bit rate               : 9 993 Kbps
Encoded date                   : UTC 2016-09-27 09:39:12
Writing application            : mkvmerge v8.8.0 ('Wind at my back') 32bit
Writing library                : libebml v1.3.3 + libmatroska v1.4.4
DURATION                       : 01:38:16.188000000
NUMBER_OF_FRAMES               : 1704
NUMBER_OF_BYTES                : 49937
_STATISTICS_WRITING_APP        : mkvmerge v8.8.0 ('Wind at my back') 32bit
_STATISTICS_WRITING_DATE_UTC   : 2016-09-27 09:39:12
_STATISTICS_TAGS               : BPS DURATION NUMBER_OF_FRAMES NUMBER_OF_BYTES
Video
ID                             : 1
Format                         : AVC
Format/Info                    : Advanced Video Codec
Format profile                 : High@L4.1
Format settings, CABAC         : Yes
Format settings, ReFrames      : 12 frames
Codec ID                       : V_MPEG4/ISO/AVC
Duration                       : 1h 39mn
Bit rate                       : 6 008 Kbps
Width                          : 1 280 pixels
Height                         : 536 pixels
Display aspect ratio           : 2.40:1
Frame rate mode                : Constant
Frame rate                     : 23.976 fps
Color space                    : YUV
Chroma subsampling             : 4:2:0
Bit depth                      : 8 bits
Scan type                      : Progressive
Bits/(Pixel*Frame)             : 0.365
Stream size                    : 4.19 GiB (60%)
Writing library                : x264 core 148 r2665kMod a01e339
Encoding settings              : cabac=1 / ref=12 / deblock=1:-3:-3 / analyse=0x3:0x133 / me=umh / subme=10 / psy=1 / fade_compensate=0.00 / psy_rd=1.00:0.00 / mixed_ref=1 / me_range=24 / chroma_me=1 / trellis=2 / 8x8dct=1 / cqm=0 / deadzone=21,11 / fast_pskip=0 / chroma_qp_offset=-2 / threads=12 / lookahead_threads=2 / sliced_threads=0 / nr=0 / decimate=0 / interlaced=0 / bluray_compat=0 / constrained_intra=0 / fgo=0 / bframes=9 / b_pyramid=2 / b_adapt=2 / b_bias=0 / direct=3 / weightb=1 / open_gop=0 / weightp=2 / keyint=250 / keyint_min=23 / scenecut=40 / intra_refresh=0 / rc_lookahead=60 / rc=crf / mbtree=0 / crf=16.0000 / qcomp=0.65 / qpmin=0 / qpmax=69 / qpstep=4 / vbv_maxrate=62500 / vbv_bufsize=78125 / crf_max=0.0 / nal_hrd=none / filler=0 / ip_ratio=1.30 / pb_ratio=1.20 / aq=3:0.70
Language                       : English
Default                        : Yes
Forced                         : No
Matrix coefficients            : BT.709
Color range                    : Limited
DURATION                       : 01:39:53.613000000
NUMBER_OF_FRAMES               : 143703
NUMBER_OF_BYTES                : 4641534083
_STATISTICS_WRITING_APP        : mkvmerge v8.8.0 ('Wind at my back') 32bit
_STATISTICS_WRITING_DATE_UTC   : 2016-09-27 09:39:12
_STATISTICS_TAGS               : BPS DURATION NUMBER_OF_FRAMES NUMBER_OF_BYTES
Audio #1
ID                             : 2
Format                         : DTS
Format/Info                    : Digital Theater Systems
Mode                           : 16
Format settings, Endianness    : Big
Codec ID                       : A_DTS
Duration                       : 1h 39mn
Bit rate mode                  : Constant
Bit rate                       : 768 Kbps
Channel(s)                     : 6 channels
Channel positions              : Front: L C R, Side: L R, LFE
Sampling rate                  : 48.0 KHz
Bit depth                      : 24 bits
Compression mode               : Lossy
Stream size                    : 549 MiB (8%)
Title                          : DUB (Blu-ray CEE / UPI)
Language                       : Russian
Default                        : Yes
Forced                         : No
Audio #2
ID                             : 3
Format                         : DTS
Format/Info                    : Digital Theater Systems
Mode                           : 16
Format settings, Endianness    : Big
Codec ID                       : A_DTS
Duration                       : 1h 39mn
Bit rate mode                  : Constant
Bit rate                       : 1 509 Kbps
Channel(s)                     : 6 channels
Channel positions              : Front: L C R, Side: L R, LFE
Sampling rate                  : 48.0 KHz
Bit depth                      : 24 bits
Compression mode               : Lossy
Stream size                    : 1.05 GiB (15%)
Title                          : MVO (Paradox)
Language                       : Russian
Default                        : No
Forced                         : No
Audio #3
ID                             : 4
Format                         : DTS
Format/Info                    : Digital Theater Systems
Mode                           : 16
Format settings, Endianness    : Big
Codec ID                       : A_DTS
Duration                       : 1h 39mn
Bit rate mode                  : Constant
Bit rate                       : 1 509 Kbps
Channel(s)                     : 6 channels
Channel positions              : Front: L C R, Side: L R, LFE
Sampling rate                  : 48.0 KHz
Bit depth                      : 24 bits
Compression mode               : Lossy
Stream size                    : 1.05 GiB (15%)
Title                          : Original
Language                       : English
Default                        : No
Forced                         : No
Text #1
ID                             : 5
Format                         : UTF-8
Codec ID                       : S_TEXT/UTF8
Codec ID/Info                  : UTF-8 Plain Text
Title                          : Forced (Blu-ray CEE)
Language                       : Russian
Default                        : Yes
Forced                         : No
Text #2
ID                             : 6
Format                         : UTF-8
Codec ID                       : S_TEXT/UTF8
Codec ID/Info                  : UTF-8 Plain Text
Title                          : Full (Blu-ray CEE)
Language                       : Russian
Default                        : No
Forced                         : No
Text #3
ID                             : 7
Format                         : UTF-8
Codec ID                       : S_TEXT/UTF8
Codec ID/Info                  : UTF-8 Plain Text
Title                          : Full (Blu-ray CEE)
Language                       : Ukrainian
Default                        : No
Forced                         : No
Text #4
ID                             : 8
Format                         : UTF-8
Codec ID                       : S_TEXT/UTF8
Codec ID/Info                  : UTF-8 Plain Text
Title                          : Full
Language                       : English
Default                        : No
Forced                         : No
Text #5
ID                             : 9
Format                         : UTF-8
Codec ID                       : S_TEXT/UTF8
Codec ID/Info                  : UTF-8 Plain Text
Title                          : Full (SDH)
Language                       : English
Default                        : No
Forced                         : No
Menu
00:00:00.000                   : en:00:00:00.000
00:03:59.906                   : en:00:03:59.906
00:07:50.220                   : en:00:07:50.220
00:14:23.071                   : en:00:14:23.071
00:18:36.574                   : en:00:18:36.574
00:23:29.992                   : en:00:23:29.992
00:27:39.449                   : en:00:27:39.449
00:32:51.261                   : en:00:32:51.261
00:38:16.586                   : en:00:38:16.586
00:43:58.177                   : en:00:43:58.177
00:47:32.433                   : en:00:47:32.433
00:54:25.721                   : en:00:54:25.721
00:57:55.305                   : en:00:57:55.305
01:02:06.806                   : en:01:02:06.806
01:06:10.884                   : en:01:06:10.884
01:11:01.549                   : en:01:11:01.549
01:17:48.247                   : en:01:17:48.247
01:23:16.783                   : en:01:23:16.783
01:31:48.294                   : en:01:31:48.294
01:35:52.705                   : en:01:35:52.705
-

_________________
Показать сообщения:    

Текущее время: Сегодня 12:47

Часовой пояс: GMT



Вы не можете начинать темы
Вы не можете отвечать на сообщения
Вы не можете редактировать свои сообщения
Вы не можете удалять свои сообщения
Вы не можете голосовать в опросах
Вы не можете прикреплять файлы к сообщениям
Вы не можете скачивать файлы