Ивановский Торрент трекер
Яндекс.Погода
 

[Цитировать]
HUNTER

Паника в Нидл-парке / The Panic in Needle Park
Страна: США
Жанр: Драма, криминал
Год выпуска: 1971
Продолжительность: 01:49:43
Перевод: Профессиональный (двухголосый закадровый)
Cубтитры: English( Full, SDH)
Оригинальная аудиодорожка: английский-Режиссер: Джерри Щацберг / Jerry Schatzberg-В ролях: Аль Пачино, Китти Уинн, Алан Винт, Ричард Брайт, Кил Мартин, Майкл МакКлэнатан, Уоррен Финнерти, Марсия Джин Кертц, Рауль Хулиа, Энджи Ортега-Описание: Бобби - наркодилер, Хэлен - молодая художница. Они знакомятся и влюбляются друг в друга. Вскоре Хэлен тоже становится наркозависимой. Отношения молодых людей далеки от романтичных - грязные притоны, стычки со служителями закона и постоянная нехватка денег. Они мечтают завязать, уехать и начать жизнь с чистого листа. Но сделать это оказывается не так легко...-Релиз:
| Рип от SbR-Качество видео: BDRip | Sample
Формат видео: AVI
Видео: 1280x694 at 23.976 fps, x264@L4.1, 12494 kbps
Аудио 1: Russian: 48 kHz, AC3, 2/0 (L,R) ch, ~192.00 kbps avg |Двухголосый закадровый|
Аудио 2: English: 48 kHz/16-bit, FLAC2.0, ~ 298.00 kbps avg
Аудио 3: English: 48 kHz/24-bit, FLAC 2.0, ~ 185 .00 kbps avg |музыкальные фрагменты|-

MediaInfo

Format                      : Matroska
Format version              : Version 4 / Version 2
File size                   : 10.1 GiB
Duration                    : 1h 49mn
Overall bit rate mode       : Variable
Overall bit rate            : 13.2 Mbps
Encoded date                : UTC 2016-07-27 08:16:07
Writing application         : mkvmerge v9.3.1 ('Mask Machine') 32bit
Writing library             : libebml v1.3.4 + libmatroska v1.4.5
Cover                       : Yes
Attachments                 : cover.jpg
Video
ID                          : 1
Format                      : AVC
Format/Info                 : Advanced Video Codec
Format profile              : High@L4.1
Format settings, CABAC      : Yes
Format settings, ReFrames   : 9 frames
Codec ID                    : V_MPEG4/ISO/AVC
Duration                    : 1h 49mn
Bit rate                    : 12.5 Mbps
Width                       : 1 280 pixels
Height                      : 694 pixels
Display aspect ratio        : 1.85:1
Frame rate mode             : Constant
Frame rate                  : 23.976 (23976/1000) fps
Color space                 : YUV
Chroma subsampling          : 4:2:0
Bit depth                   : 8 bits
Scan type                   : Progressive
Bits/(Pixel*Frame)          : 0.587
Stream size                 : 9.58 GiB (95%)
Writing library             : x264 core 148 r2705+54 9f484c1 t_mod_Custom [8-bit@all X86_64]
Encoding settings           : cabac=1 / ref=9 / deblock=1:-3:-3 / analyse=0x3:0x133 / me=umh / subme=10 / psy=1 / fade_compensate=0.00 / psy_rd=1.10:0.05 / mixed_ref=1 / me_range=32 / chroma_me=1 / trellis=2 / 8x8dct=1 / cqm=0 / deadzone=21,11 / fast_pskip=0 / chroma_qp_offset=-3 / threads=6 / lookahead_threads=1 / sliced_threads=0 / nr=0 / decimate=1 / interlaced=0 / bluray_compat=0 / constrained_intra=0 / fgo=0 / bframes=8 / b_pyramid=2 / b_adapt=2 / b_bias=0 / direct=3 / weightb=1 / open_gop=0 / weightp=2 / keyint=250 / keyint_min=23 / scenecut=40 / intra_refresh=0 / rc=2pass / mbtree=0 / bitrate=12500 / ratetol=1.0 / qcomp=0.60 / qpmin=0:0:0 / qpmax=69:69:69 / qpstep=4 / cplxblur=20.0 / qblur=0.5 / ip_ratio=1.20 / pb_ratio=1.10 / aq=3:0.65 / aq-sensitivity=10.00 / aq-factor=1.00:1.00:1.00 / aq2=1:0.60 / aq2-sensitivity=15.00 / aq2-factor=1.00:1.00:1.00 / aq3=1:[0.50:0.50]:[0.50:0.50]:[0.50:0.50]:[0.50:0.50] / aq3-sensitivity=10.00 / aq3-factor=[1.00:1.00]:[1.00:1.00]:[1.00:1.00] / aq3-boundary=192:64:24
Language                    : English
Default                     : Yes
Forced                      : No
Color range                 : Limited
Matrix coefficients         : BT.709
Audio #1
ID                          : 2
Format                      : AC-3
Format/Info                 : Audio Coding 3
Mode extension              : CM (complete main)
Format settings, Endianness : Big
Codec ID                    : A_AC3
Duration                    : 1h 49mn
Bit rate mode               : Constant
Bit rate                    : 192 Kbps
Channel(s)                  : 2 channels
Channel positions           : Front: L R
Sampling rate               : 48.0 KHz
Frame rate                  : 31.250 fps (1536 spf)
Compression mode            : Lossy
Stream size                 : 151 MiB (1%)
Language                    : Russian
Default                     : Yes
Forced                      : Yes
Audio #2
ID                          : 3
Format                      : FLAC
Format/Info                 : Free Lossless Audio Codec
Codec ID                    : A_FLAC
Duration                    : 1h 49mn
Bit rate mode               : Variable
Bit rate                    : 298 Kbps
Channel(s)                  : 2 channels
Channel positions           : Front: L R
Sampling rate               : 48.0 KHz
Frame rate                  : 11.719 fps (4096 spf)
Bit depth                   : 16 bits
Stream size                 : 234 MiB (2%)
Writing library             : libFLAC 1.2.1 (UTC 2007-09-17)
Language                    : English
Default                     : No
Forced                      : No
Audio #3
ID                          : 4
Format                      : FLAC
Format/Info                 : Free Lossless Audio Codec
Codec ID                    : A_FLAC
Duration                    : 1h 49mn
Bit rate mode               : Variable
Bit rate                    : 185 Kbps
Channel(s)                  : 2 channels
Channel positions           : Front: L R
Sampling rate               : 48.0 KHz
Frame rate                  : 11.719 fps (4096 spf)
Bit depth                   : 24 bits
Stream size                 : 145 MiB (1%)
Writing library             : libFLAC 1.2.1 (UTC 2007-09-17)
Language                    : English
Default                     : No
Forced                      : No
Text #1
ID                          : 5
Format                      : UTF-8
Codec ID                    : S_TEXT/UTF8
Codec ID/Info               : UTF-8 Plain Text
Duration                    : 1h 47mn
Bit rate                    : 43 bps
Count of elements           : 1106
Stream size                 : 34.1 KiB (0%)
Language                    : English
Default                     : No
Forced                      : No
Text #2
ID                          : 6
Format                      : UTF-8
Codec ID                    : S_TEXT/UTF8
Codec ID/Info               : UTF-8 Plain Text
Duration                    : 1h 49mn
Bit rate                    : 45 bps
Count of elements           : 1180
Stream size                 : 36.7 KiB (0%)
Title                       : SDH
Language                    : English
Default                     : No
Forced                      : No
Menu
00:00:00.000                : en:00:00:00.000
00:03:43.348                : en:00:03:43.348
00:08:17.956                : en:00:08:17.956
00:13:56.375                : en:00:13:56.375
00:18:25.185                : en:00:18:25.185
00:22:50.367                : en:00:22:50.367
00:28:04.016                : en:00:28:04.016
00:30:43.884                : en:00:30:43.884
00:36:59.384                : en:00:36:59.384
00:41:38.286                : en:00:41:38.286
00:44:43.764                : en:00:44:43.764
00:50:42.456                : en:00:50:42.456
00:54:59.630                : en:00:54:59.630
01:00:15.987                : en:01:00:15.987
01:04:02.047                : en:01:04:02.047
01:07:09.943                : en:01:07:09.943
01:14:37.846                : en:01:14:37.846
01:18:02.219                : en:01:18:02.219
01:21:54.827                : en:01:21:54.827
01:26:33.729                : en:01:26:33.729
01:32:00.096                : en:01:32:00.096
01:35:23.051                : en:01:35:23.051
01:40:53.546                : en:01:40:53.546
01:44:13.831                : en:01:44:13.831

Скриншоты

Показать сообщения:    

Текущее время: 18-Окт 06:25

Часовой пояс: UTC - 1


Вы не можете начинать темы
Вы не можете отвечать на сообщения
Вы не можете редактировать свои сообщения
Вы не можете удалять свои сообщения
Вы не можете голосовать в опросах
Вы не можете прикреплять файлы к сообщениям
Вы не можете скачивать файлы

!ВНИМАНИЕ!
Сайт не предоставляет электронные версии произведений, а занимается лишь коллекционированием и каталогизацией ссылок, присылаемых и публикуемых на форуме нашими читателями. Если вы являетесь правообладателем какого-либо представленного материала и не желаете, чтобы ссылка на него находилась в нашем каталоге, свяжитесь с нами, и мы незамедлительно удалим ее. Файлы для обмена на трекере предоставлены пользователями сайта, и администрация не несет ответственности за их содержание. Просьба не заливать файлы, защищенные авторскими правами, а также файлы нелегального содержания!