Важное объявление!
У Нас Все раздачи мультитрекерные, при нуле пиров в релизах, можете смело вставать на закачку!
 
Автор Сообщение

HUNTER

Стаж:
4 года 8 месяцев
Сообщений:
62102

Репутация: 101

[+] [-]
Вне форума [Профиль] [ЛС]


Пальчиковая гимнастика-Год выпуска: 2004
Страна: Россия
Сайт производителя: отсутствуeт
Тематика: Учебные видео для детей и родителей
Тип материала: обучающее видео
Продолжительность: 00:22:45
Автор: не известен
Язык: Русский
Субтитры: отсутствуют-Описание: Видеокурс способствует развитию внимания, мышления, памяти. Оказывает благоприятное влияние на речь ребенка, правильное произношение. Возможность параллельно повторять движение пальцев, кистей рук вместе с опытным педагогом и детьми заметно облегчит восприятие материала. Видеопособие предназначено для детей младшего школьного возраста, родителей, логопедов, воспитателей детских садов, гувернеров.
Фильм снят в жанре сказки, дети проделывают все упражнения в забавной, игровой форме, изучая песенки и стишки, что облегчает процесс обучения.
-Качество: DVDRip
Формат: AVI
Видео кодек: Другой MPEG4
Аудио кодек: Microsoft PCM
Видео: 720x576 (1.25:1), 25 fps, Microsoft MPEG-4 Video Codec V2 ~1193 kbps avg, 0.12 bit/pixel
Аудио: 44.100 kHz, Microsoft PCM, 2 ch, ~1411.20 kbps avg-

MediaInfo

Код: copyText_writeLink('this.parentNode.parentNode.nextSibling.nextSibling'); Общее
Полное имя : D:\обуч\palchikovaya_gimnastika.avi
Формат : AVI
Формат/Информация : Audio Video Interleave
Размер файла : 425 Мбайт
Продолжительность : 22 м.
Общий поток : 2614 Кбит/сек
Программа кодирования : Lavf51.12.1
Видео
Идентификатор : 0
Формат : MPEG-4 Visual
Идентификатор кодека : MP42
Идентификатор кодека/Информация : Microsoft MPEG-4 v2 (pre-standard)
Идентификатор кодека/Подсказка : Microsoft
Продолжительность : 22 м.
Битрейт : 1193 Кбит/сек
Ширина : 720 пикселей
Высота : 576 пикселей
Соотношение сторон : 5:4
Частота кадров : 25,000 кадров/сек
Стандарт вещания : PAL
Метод сжатия : С потерями
Бит/(Пиксели*Кадры) : 0.115
Размер потока : 194 Мбайт (46%)
Аудио
Идентификатор : 1
Формат : PCM
Параметр Endianness формата : Little
Параметр Sign формата : Signed
Идентификатор кодека : 1
Продолжительность : 22 м.
Вид битрейта : Постоянный
Битрейт : 1411,2 Кбит/сек
Каналы : 2 канала
Частота : 44,1 КГц
Битовая глубина : 16 бит
Размер потока : 230 Мбайт (54%)
Продолжительность промежутка : 40 мс. (1,00 видеокадр)
Время предзагрузки промежутка : 39 мс.

Скриншоты

-

_________________
Показать сообщения:    

Текущее время: Сегодня 23:43

Часовой пояс: GMT



Вы не можете начинать темы
Вы не можете отвечать на сообщения
Вы не можете редактировать свои сообщения
Вы не можете удалять свои сообщения
Вы не можете голосовать в опросах
Вы не можете прикреплять файлы к сообщениям
Вы не можете скачивать файлы
Наши партнеры: интернет магазин Ивановского трикотажа textilla.ru