Важное объявление!
У Нас Все раздачи мультитрекерные, при нуле пиров в релизах, можете смело вставать на закачку!
 
Автор Сообщение

димитри37

Стаж:
4 года 2 месяца
Сообщений:
1236

Репутация: 127

[+] [-]
Вне форума [Профиль] [ЛС]

Падение Олимпа / Olympus Has Fallen
Страна: США
Жанр: Боевик, Триллер
Год выпуска: 2013
Продолжительность: 01:59:09
Перевод: Профессиональный (дублированный) Звук с CamRip
Cубтитры: нет
Оригинальная аудиодорожка: нет
Режиссер: Антуан Фукуа / Antoine Fuqua
В ролях: Джерард Батлер, Аарон Экхарт, Морган Фриман, Эшли Джадд, Мелисса Лео, Финли Якобсен, Дилан МакДермотт, Рик Юн, Анджела Бассетт, Рада Митчелл
Описание: Когда на Белый Дом нападают террористы, а президента берут в заложники, дискредитированный бывший охранник главы государства Майк Бэннинг оказывается внутри захваченного здания. И теперь он единственный, кто сможет спасти президента…

Качество видео: HDRip
Формат видео: AVI
Видео: XviD, 720x304 (2,35:1), 24,000 кадра/сек, 1510 Кбит/сек
Аудио: MPEG-1 Audio layer 3, 48,0 КГц, 2 канала, 128 Кбит/сек

MediaInfo

Формат : AVI
Формат/Информация : Audio Video Interleave
Размер файла : 1,37 Гбайт
Продолжительность : 1 ч. 59 м.
Общий поток : 1647 Кбит/сек
Программа кодирования : VirtualDubMod 1.5.10.2 (build 2540/release)
Библиотека кодирования : VirtualDubMod build 2540/release
Видео
Идентификатор : 0
Формат : MPEG-4 Visual
Профиль формата : Advanced Simple@L5
Параметр BVOP формата : 2
Параметр QPel формата : Нет
Параметр GMC формата : Без точки перехода
Параметр матрицы формата : Default (MPEG)
Режим смешивания : Сжатый битовый поток
Идентификатор кодека : XVID
Идентификатор кодека/Подсказка : XviD
Продолжительность : 1 ч. 59 м.
Битрейт : 1510 Кбит/сек
Ширина : 720 пикс.
Высота : 304 пикс.
Соотношение сторон : 2,35:1
Частота кадров : 24,000 кадр/сек
Цветовое пространство : YUV
Подвыборка цветности : 4:2:0
Битовая глубина : 8 бит
Тип развёртки : Прогрессивная
Метод сжатия : С потерями
Бит/(Пиксели*Кадры) : 0.287
Размер потока : 1,26 Гбайт (92%)
Библиотека кодирования : XviD 1.2.1 (UTC 2008-12-04)
Аудио
Идентификатор : 1
Формат : MPEG Audio
Версия формата : Version 1
Профиль формата : Layer 3
Режим : Joint stereo
Расширение режима : MS Stereo
Идентификатор кодека : 55
Идентификатор кодека/Подсказка : MP3
Продолжительность : 1 ч. 59 м.
Вид битрейта : Постоянный
Битрейт : 128 Кбит/сек
Каналы : 2 канала
Частота : 48,0 КГц
Метод сжатия : С потерями
Размер потока : 109 Мбайт (8%)
Выравнивание : Соединение по промежуткам
Продолжительность промежутка : 42 мс. (1,00 видеокадр)
Время предзагрузки промежутка : 504 ms

Скриншоты


-Источник:
Показать сообщения:    

Текущее время: Сегодня 05:00

Часовой пояс: GMT



Вы не можете начинать темы
Вы не можете отвечать на сообщения
Вы не можете редактировать свои сообщения
Вы не можете удалять свои сообщения
Вы не можете голосовать в опросах
Вы не можете прикреплять файлы к сообщениям
Вы не можете скачивать файлы