Ивановский Торрент трекер
Яндекс.Погода
 

[Цитировать]
димитри37


«Удар был нанесён в самое сердце. Но он заставит его биться вновь.»
Страна: США, Millennium Films, Nu-Image Films, West Coast Film Partners
Жанр: Боевик, Триллер
Год выпуска: 2013
Продолжительность: 01:59:09
Перевод:
Профессиональный (дублированный) [лицензия]
Субтитры: нет
Оригинальная дорожка: английский (отдельно на yadisk)
Главы: есть
Режиссер: Антуан Фукуа / Antoine Fuqua
В ролях: Джерард Батлер, Аарон Экхарт, Морган Фримен, Эшли Джадд, Мелисса Лео, Дилан МакДермотт, Рада Митчелл, Морган Джей Уильямс, Коул Хаузер, Анджела Бассетт
Описание: Визит корейского премьер-министра обернулся в террористическое нападение на Белый дом, и все Соединенные штаты с ужасом наблюдают безуспешные попытки властей справиться с ситуацией. Лишь бывший спецагент находит единственную возможность обуздать зарвавшихся экстремистов. И кажется , что всё под контролем у террористов, но знания и опыт Майка Бэннинга помогают ему справиться с возникшей нелегкой ситуацией.

Качество видео: BDRip-AVC
Формат видео: MKV
Видео: AVC / High@L4.1 / 1036 x 436 / 2 021 Kbps / 2.40:1
Аудио:
Russian: 48 kHz, AC3 Dolby Digital, 3/2 (L,C,R,l,r) + LFE ch, ~384 kbps
English: 48 kHz, AC3 Dolby Digital, 3/2 (L,C,R,l,r) + LFE ch, ~384 kbps - отдельно на yadisk

Скриншоты



Знаете ли вы, что...

• Это четвертый фильм, в котором Морган Фриман и Эшли Джадд снялись вместе, но это первый раз, когда их персонажи не появляются вместе на экране. Первыми тремя их совместными фильмами были «Целуя девушек» (1997), «Особо тяжкие преступления» (2002) и «История дельфина» (2011).
• Джерард Батлер однажды уже рассматривался на роль агента ЦРУ, Митча Раппа, в так и не вышедшей экранизации романа Финса Флинна (Vince Flynn) «Согласие на убийство» (Consent to Kill). Первый роман, в котором появляется персонаж Митч Рапп, — это Transfer of Power, сюжет которого чрезвычайно похож на сюжет фильма «Падение Олимпа» (2013). В нем террористы захватывают контроль над Белым домом, и Рапп должен добраться до президента, укрывающегося в бункере, раньше террористов.
• Во время съемок сцен в Белом доме в Луизиане было настолько жарко, что представитель общества защиты животных настоял на том, чтобы немецких овчарок, которых снимали в качестве сторожевых псов К-9, помещали в вагон с кондиционированием воздуха в промежутках между дублями.
• Изначально в роли первой леди студия хотела видеть Вайнону Райдер.
• Морган Фриман снимался в сцене в комнате кризисных ситуаций в самый разгар интернет-слуха о его смерти. Он часто начинал съемочный день, напевая остальным актерам старые джаз-песни, и этим умилял ничего не подозревающую съемочную группу.
• Выбор Северной Кореи в качестве злодея в этом фильме стал некоторого рода провидением. В 2013 году появилась некая напряженность в отношениях между КНДР и США. Для сценария этот выбор был сделан годами ранее. Режиссер Антуан Фукуа сказал в интервью, что не хотел, чтобы злодеями были люди с Ближнего Востока, потому что это уже избитая тема. И Северная • Корея была интересна ему, потому что эта страна полностью закрыта от внешнего мира и создает такое впечатление, как будто никто не может предположить, что они хотят или на что способны.
• Роль начальника Секретной службы первоначально писалась под мужчину. Затем режиссер Антуан Фукуа убедил Анджелу Бассетт пройти прослушивание, после чего роль переписали под женщину.
• Это второй раз, когда Дилан МакДермотт сыграл агента Секретной службы. Аналогичную роль он исполнил в фильме «На линии огня» (1993).

Дополнительная информация о раздаче

Исходник

Olympus.Has.Fallen.2013.COMPLETE.BLURAY-nLiBRA

MediaInfo

General
Unique ID                                : 179507551874065806614090377832639520654 (0x870BE59DD89C2516BB03D67B08A45F8E)
Complete name                            : D:\25Kadr\Padenie.Olimpa.2013.Bluray.avc.ac3.rus.RG.25.Kadr.[by.L].mkv
Format                                   : Matroska
Format version                           : Version 2
File size                                : 2.00 GiB
Duration                                 : 1h 59mn
Overall bit rate                         : 2 406 Kbps
Movie name                               : Падение Олимпа / Olympus Has Fallen [2013 г.] | Рип L [R.G. 25 Кадр]
Encoded date                             : UTC 2013-06-29 09:46:38
Writing application                      : mkvmerge v3.2.0 ('Beginnings') built on Feb 12 2010 16:46:17
Writing library                          : libebml v0.7.9 + libmatroska v0.8.1
Video
ID                                       : 1
Format                                   : AVC
Format/Info                              : Advanced Video Codec
Format profile                           : High@L4.1
Format settings, CABAC                   : Yes
Format settings, ReFrames                : 12 frames
Codec ID                                 : V_MPEG4/ISO/AVC
Duration                                 : 1h 59mn
Bit rate                                 : 2 021 Kbps
Width                                    : 1 036 pixels
Height                                   : 436 pixels
Display aspect ratio                     : 2.40:1
Frame rate mode                          : Constant
Frame rate                               : 24.000 fps
Color space                              : YUV
Chroma subsampling                       : 4:2:0
Bit depth                                : 8 bits
Scan type                                : Progressive
Bits/(Pixel*Frame)                       : 0.186
Stream size                              : 1.64 GiB (82%)
Writing library                          : x264 core 133 r2334 a3ac64b
Encoding settings                        : cabac=1 / ref=12 / deblock=1:-2:-1 / analyse=0x3:0x133 / me=umh / subme=11 / psy=1 / psy_rd=1.10:0.10 / mixed_ref=1 / me_range=32 / chroma_me=1 / trellis=2 / 8x8dct=1 / cqm=0 / deadzone=21,11 / fast_pskip=0 / chroma_qp_offset=-4 / threads=6 / lookahead_threads=1 / sliced_threads=0 / nr=0 / decimate=1 / interlaced=0 / bluray_compat=0 / constrained_intra=0 / bframes=12 / b_pyramid=2 / b_adapt=2 / b_bias=0 / direct=3 / weightb=1 / open_gop=0 / weightp=2 / keyint=230 / keyint_min=21 / scenecut=40 / intra_refresh=0 / rc_lookahead=0 / rc=2pass / mbtree=0 / bitrate=2021 / ratetol=1.0 / qcomp=0.70 / qpmin=0 / qpmax=69 / qpstep=4 / cplxblur=20.0 / qblur=0.5 / vbv_maxrate=50000 / vbv_bufsize=62500 / nal_hrd=none / ip_ratio=1.35 / pb_ratio=1.25 / aq=2:0.90
Language                                 : English
Default                                  : No
Forced                                   : No
Audio
ID                                       : 2
Format                                   : AC-3
Format/Info                              : Audio Coding 3
Mode extension                           : CM (complete main)
Format settings, Endianness              : Big
Codec ID                                 : A_AC3
Duration                                 : 1h 59mn
Bit rate mode                            : Constant
Bit rate                                 : 384 Kbps
Channel(s)                               : 6 channels
Channel positions                        : Front: L C R, Side: L R, LFE
Sampling rate                            : 48.0 KHz
Bit depth                                : 16 bits
Compression mode                         : Lossy
Stream size                              : 327 MiB (16%)
Title                                    : Дубляж
Language                                 : Russian
Default                                  : Yes
Forced                                   : No
Menu
00:00:00.000                             : en:00:00:00.000
00:09:19.542                             : en:00:09:19.542
00:17:49.750                             : en:00:17:49.750
00:27:52.417                             : en:00:27:52.417
00:38:11.708                             : en:00:38:11.708
00:46:51.833                             : en:00:46:51.833
00:57:37.000                             : en:00:57:37.000
01:07:31.708                             : en:01:07:31.708
01:19:48.875                             : en:01:19:48.875
01:28:46.208                             : en:01:28:46.208
01:38:14.125                             : en:01:38:14.125
01:50:14.625                             : en:01:50:14.625

Log_x264

---[Information] [27.06.2013 21:40:18] x264 [info]: frame I:1579  Avg QP:15.92  size: 54461  PSNR Mean Y:48.31 U:51.10 V:51.72 Avg:49.10 Global:48.29
---[Information] [27.06.2013 21:40:18] x264 [info]: frame P:34096 Avg QP:18.30  size: 19775  PSNR Mean Y:46.89 U:49.70 V:50.41 Avg:47.69 Global:46.62
---[Information] [27.06.2013 21:40:18] x264 [info]: frame B:135902 Avg QP:20.14  size:  7690  PSNR Mean Y:46.20 U:49.30 V:50.13 Avg:47.06 Global:45.79
-Источник:
Показать сообщения:    

Текущее время: 24-Сен 13:08

Часовой пояс: UTC - 1


Вы не можете начинать темы
Вы не можете отвечать на сообщения
Вы не можете редактировать свои сообщения
Вы не можете удалять свои сообщения
Вы не можете голосовать в опросах
Вы не можете прикреплять файлы к сообщениям
Вы не можете скачивать файлы

!ВНИМАНИЕ!
Сайт не предоставляет электронные версии произведений, а занимается лишь коллекционированием и каталогизацией ссылок, присылаемых и публикуемых на форуме нашими читателями. Если вы являетесь правообладателем какого-либо представленного материала и не желаете, чтобы ссылка на него находилась в нашем каталоге, свяжитесь с нами, и мы незамедлительно удалим ее. Файлы для обмена на трекере предоставлены пользователями сайта, и администрация не несет ответственности за их содержание. Просьба не заливать файлы, защищенные авторскими правами, а также файлы нелегального содержания!