Паганини: Скрипач Дьявола / The Devil's Violinist (Бернард Роуз) [2013, драма, биография, DVDRip][Лицензия] :: Ивановский Торрент трекер
Важное объявление!
У Нас Все раздачи мультитрекерные, при нуле пиров в релизах, можете смело вставать на закачку!
Статистика раздачи
Размер:     |    Зарегистрирован:     |    Скачан:     |   
Нет
 
     
 
 
Автор Сообщение

HUNTER

Стаж:
4 года 11 месяцев
Сообщений:
66077

Репутация: 101

[+] [-]
Вне форума [Профиль] [ЛС]

Паганини: Скрипач Дьявола / The Devil's Violinist-Год выпуска: 2013
Страна: Германия, Италия
Жанр: драма, биография
Продолжительность: 01:57:21
Перевод: Профессиональный (дублированный) [Лицензия]
Субтитры: Нет-В ролях: Дэвид Гэрретт, Джаред Харрис, Андреа Дэк, Кристиан МакКэй, Джоэли Ричардсон, Вероника Феррес, Оливия д’Або, Хельмут Бергер, Томас Антон-Режиссёр: Бернард Роуз- -Имя скрипача Никколо Паганини еще при жизни стало легендой. Что не удивительно, ведь его непревзойденный талант покорил сначала Париж, потом всю Европу, а затем и весь мир. Сама личность Паганини, окутанная ореолом мистики и таинственности, неизбежно привела к возникновению самых разнообразных слухов. Среди них была и уверенность в том, что он продал душу дьяволу, чтобы обрести свой талант. Слава и развращает, и мучает музыканта, вино и опиум приносят лишь временное утешение, и все больше ощущается странная всепоглощающая пустота…
Во время гастролей в Лондоне Паганини встречает девушку с ангельским голосом и чистой душой, которую, казалось, ему было суждено повстречать. Но сможет ли человек, играющий на дьявольской скрипке, познать счастье? Или за дар придется расплачиваться единственной любовью?-Качество: DVDRip
Формат: AVI
Видео кодек: XviD
Аудио кодек: АС3
Видео: XviD, 720x304, 1326 Кбит/сек, 25.000 кадр/сек
Аудио 1: АС3, 448 Кбит/сек, 6 канала(ов), 48,0 КГц
-

MediaInfo:

General
Complete name : C:\Users\Електростаил\Desktop\Новая папка\Paganini.2013.DVDRip.avi
Format : AVI
Format/Info : Audio Video Interleave
File size : 1.46 GiB
Duration : 1h 57mn
Overall bit rate : 1 783 Kbps
Writing application : VirtualDubMod 1.5.10.3 | www.virtualdub-fr.org || (build 2550/release)
Writing library : VirtualDubMod build 2550/release
Video
ID : 0
Format : MPEG-4 Visual
Format profile : Advanced Simple@L5
Format settings, BVOP : Yes
Format settings, QPel : No
Format settings, GMC : No warppoints
Format settings, Matrix : Custom
Codec ID : XVID
Codec ID/Hint : XviD
Duration : 1h 57mn
Bit rate : 1 326 Kbps
Width : 720 pixels
Height : 304 pixels
Display aspect ratio : 2.35:1
Frame rate : 25.000 fps
Color space : YUV
Chroma subsampling : 4:2:0
Bit depth : 8 bits
Scan type : Progressive
Compression mode : Lossy
Bits/(Pixel*Frame) : 0.242
Stream size : 1.09 GiB (74%)
Writing library : XviD 73
Audio
ID : 1
Format : AC-3
Format/Info : Audio Coding 3
Mode extension : CM (complete main)
Format settings, Endianness : Big
Codec ID : 2000
Duration : 1h 57mn
Bit rate mode : Constant
Bit rate : 448 Kbps
Channel count : 6 channels
Channel positions : Front: L C R, Side: L R, LFE
Sampling rate : 48.0 KHz
Bit depth : 16 bits
Compression mode : Lossy
Stream size : 376 MiB (25%)
Alignment : Split accross interleaves
Interleave, duration : 40 ms (1.00 video frame)
Interleave, preload duration : 500 ms

Скриншоты:


_________________
Показать сообщения:    

Текущее время: Сегодня 02:10

Часовой пояс: GMT



Вы не можете начинать темы
Вы не можете отвечать на сообщения
Вы не можете редактировать свои сообщения
Вы не можете удалять свои сообщения
Вы не можете голосовать в опросах
Вы не можете прикреплять файлы к сообщениям
Вы не можете скачивать файлы