Ивановский Торрент трекер
Яндекс.Погода
 

[Цитировать]
HUNTER

О, Рождественская елка / Рождественская елка / O' Christmas Tree
Страна: США
Жанр: Мультфильм
Продолжительность: 00:48:00
Год выпуска: 1999
Перевод: Авторский (одноголосый закадровый) Сергей Визгунов
Русские субтитры: нет
Режиссёр: Берт Ринг / Bert Ring
Роли озвучивали: Мари Осмонд, Эдвард Эснер, Тим Конуэй, Памела Адлон, Деби Дерриберри, Джесс Харнелл
Описание: Эта история приключилась под самое Рождество. Все в Зимнем лесу готовятся к празднику. Но маленькая Зеленая Елочка боится, что ей никогда не стать настоящей Рождественской Елкой.
Медвежонок, Белочка, старик Щелкунчик и сам Санта Клаус решили помочь Елочке осуществить ее мечту. Ведь в Рождество происходят самые невероятные чудеса и все мечты обязательно сбываются!
Доп. информация: Дорожка с С. Визгуновым синхронизирована и наложена ale_x2008 при помощи Sony Vegas и VirtualDubMod.
За оцифрованную с VHS дорожку благодарим - alenavova

Семпл https://yadi.sk/i/Yb2AfR6uwtNPW
Релиз
Качество: DVDRip
Формат: AVI
Видео: XviD build 73, 704x544 (1.29:1), 25.00 fps, 1993 kbps avg, 0.21 bit/pixel
Аудио: AC3 Dolby Digital, 48000Hz, 2/0 (L,R) ch (mono), 192.00 kbps avg
Субтитры: отсутствуют

Подробные технические данные

Рождественская елка - O' Christmas Tree (by ale_x2008).aviFormat : AVIFormat/Info : Audio Video InterleaveFile size : 754 MiBDuration : 48 minOverall bit rate : 2 195 kb/sMovie name : Рождественская елка - O' Christmas Tree (by ale_x2008)Director : by ale_x2008Writing application : VirtualDubMod 1.5.10.3 (build 2550/release)Copyright : Edich2Comment : RuTracker.org
VideoID : 0Format : MPEG-4 VisualFormat profile : Advanced Simple@L5Format settings, BVOP : 2Format settings, QPel : NoFormat settings, GMC : No warppointsFormat settings, Matrix : CustomCodec ID : XVIDCodec ID/Hint : XviDDuration : 48 minBit rate : 1 994 kb/sWidth : 704 pixelsHeight : 544 pixelsDisplay aspect ratio : 1.294Frame rate : 25.000 FPSColor space : YUVChroma subsampling : 4:2:0Bit depth : 8 bitsScan type : ProgressiveCompression mode : LossyBits/(Pixel*Frame) : 0.208Stream size : 685 MiB (91%)Writing library : XviD 73
AudioID : 1Format : AC-3Format/Info : Audio Coding 3Mode extension : CM (complete main)Format settings, Endianness : BigCodec ID : 2000Duration : 48 minBit rate mode : ConstantBit rate : 192 kb/sChannel(s) : 2 channelsChannel positions : Front: L RSampling rate : 48.0 kHzFrame rate : 31.250 FPS (1536 spf)Compression mode : LossyStream size : 65.9 MiB (9%)Alignment : Split accross interleavesInterleave, duration : 40 ms (1.00 video frame)Interleave, preload duratio : 500 ms

Скриншоты


Показать сообщения:    

Текущее время: 17-Окт 15:59

Часовой пояс: UTC - 1


Вы не можете начинать темы
Вы не можете отвечать на сообщения
Вы не можете редактировать свои сообщения
Вы не можете удалять свои сообщения
Вы не можете голосовать в опросах
Вы не можете прикреплять файлы к сообщениям
Вы не можете скачивать файлы

!ВНИМАНИЕ!
Сайт не предоставляет электронные версии произведений, а занимается лишь коллекционированием и каталогизацией ссылок, присылаемых и публикуемых на форуме нашими читателями. Если вы являетесь правообладателем какого-либо представленного материала и не желаете, чтобы ссылка на него находилась в нашем каталоге, свяжитесь с нами, и мы незамедлительно удалим ее. Файлы для обмена на трекере предоставлены пользователями сайта, и администрация не несет ответственности за их содержание. Просьба не заливать файлы, защищенные авторскими правами, а также файлы нелегального содержания!