Ивановский Торрент трекер
Яндекс.Погода
 

[Цитировать]
димитри37

Ошибки человеческого тела / Errors of the Human Body
Страна: Германия, США
Жанр: триллер, драма
Год выпуска: 2012
Продолжительность: 01:42:21
Перевод: Одноголосый закадровый [den904], перевод [Janetta]
Cубтитры: нет
Оригинальная аудиодорожка: нет
Режиссер: Эрон Шиан / Eron Sheean
В ролях: Майкл Эклунд, Каролина Херфурт, Томас Лемаркус, Рик Майял, Ульрих Майнеке, Иван Гонзалез, Caroline Gerdolle, Винсент Де Вилле Уша, Рэни Элизабет, Sienna Farall
Описание: История американского врача Джеффа Бертона (Майкл Эклунд), который едет по делам в немецкий Дрезден, где планирует заняться также своими тайными исследованиями. Работа Бертона связана с разработкой гена регенерации, что, в сочетании с открытиями Джеффа, может помочь восстановить даже сильно поврежденный мозг. Эти разработки могут стать началом большого научного прорыва. Но какова цена таких достижений? Трагедия в прошлом героя триллера «Ошибки человеческого тела» наложила темный отпечаток на все его действия. А когда люди становятся одержимыми игрой в Бога, последствия не заставят себя ждать.

Качество видео: WEB-DLRip
Формат видео: AVI
Видео: 720x384 (1.88:1), 23.976 fps, XviD build 50 ~1528 kbps avg, 0.23 bit/pixel
Аудио: 48 kHz, AC3 Dolby Digital, 3/2 (L,C,R,l,r) + LFE ch, ~384 kbps

MediaInfo

Общее
Полное имя : C:\кино\фильмы\Oshubka.4elovecheskogo.Tela.2013.WEBDLRip.1400mb.avi
Формат : AVI
Формат/Информация : Audio Video Interleave
Размер файла : 1,37 Гбайт
Продолжительность : 1 ч. 42 м.
Общий поток : 1921 Кбит/сек
Программа кодирования : VirtualDubMod 1.5.10.2 (build 2540/release)
Библиотека кодирования : VirtualDubMod build 2540/release
Видео
Идентификатор : 0
Формат : MPEG-4 Visual
Профиль формата : Advanced Simple@L5
Параметр BVOP формата : 2
Параметр QPel формата : Нет
Параметр GMC формата : Без точки перехода
Параметр матрицы формата : Default (H.263)
Идентификатор кодека : XVID
Идентификатор кодека/Подсказка : XviD
Продолжительность : 1 ч. 42 м.
Битрейт : 1528 Кбит/сек
Ширина : 720 пикселей
Высота : 384 пикселя
Соотношение сторон : 1,85:1
Частота кадров : 23,976 кадра/сек
Цветовое пространство : YUV
Субдискретизация насыщенности : 4:2:0
Битовая глубина : 8 бит
Тип развёртки : Прогрессивная
Метод сжатия : С потерями
Бит/(Пиксели*Кадры) : 0.231
Размер потока : 1,09 Гбайт (80%)
Библиотека кодирования : XviD 1.2.1 (UTC 2008-12-04)
Аудио
Идентификатор : 1
Формат : AC-3
Формат/Информация : Audio Coding 3
Расширение режима : CM (complete main)
Параметр Endianness формата : Big
Идентификатор кодека : 2000
Продолжительность : 1 ч. 42 м.
Вид битрейта : Постоянный
Битрейт : 384 Кбит/сек
Каналы : 6 каналов
Расположение каналов : Front: L C R, Side: L R, LFE
Частота : 48,0 КГц
Битовая глубина : 16 бит
Метод сжатия : С потерями
Размер потока : 280 Мбайт (20%)
Выравнивание : Разделение по промежуткам
Продолжительность промежутка : 42 мс. (1,00 видеокадр)
Время предзагрузки промежутка : 500 мс.

Скриншоты

Показать сообщения:    

Текущее время: 23-Окт 03:33

Часовой пояс: UTC - 1


Вы не можете начинать темы
Вы не можете отвечать на сообщения
Вы не можете редактировать свои сообщения
Вы не можете удалять свои сообщения
Вы не можете голосовать в опросах
Вы не можете прикреплять файлы к сообщениям
Вы не можете скачивать файлы

!ВНИМАНИЕ!
Сайт не предоставляет электронные версии произведений, а занимается лишь коллекционированием и каталогизацией ссылок, присылаемых и публикуемых на форуме нашими читателями. Если вы являетесь правообладателем какого-либо представленного материала и не желаете, чтобы ссылка на него находилась в нашем каталоге, свяжитесь с нами, и мы незамедлительно удалим ее. Файлы для обмена на трекере предоставлены пользователями сайта, и администрация не несет ответственности за их содержание. Просьба не заливать файлы, защищенные авторскими правами, а также файлы нелегального содержания!