Ивановский Торрент трекер
Яндекс.Погода
Статистика раздачи
Размер:  8.82 GB   |    Зарегистрирован:  1 год 8 месяцев   |    Скачан:  0 раз

Полного источника не было: Никогда

 
     
 
 
 

[Цитировать]
HUNTER

Ошибка времени / Time Lapse
Страна: США
Студия: Uncooperative Pictures
Жанр: фантастика, триллер
Год выпуска: 2014
Продолжительность: 01:44:08
Перевод 1: Профессиональный (многоголосый закадровый)
Перевод 2: Любительский (двухголосый закадровый) RAIM & GUGU
Оригинальная аудиодорожка: английский
Cубтитры: русские, английские--Режиссер: Брэдли Кинг / Bradley King--В ролях: Даниэль Панабэйкер, Мэтью О'Лири, Джордж Финн, Эймин Джозеф, Джейсон Спайсэк, Дэвид Фильоли, Шэрон Мофан, Джудит Дрэйк, Марк С. Хэнсон...--Описание: Трое приятелей - подающий надежды художник и по совместительству управдом Финн, его девушка официантка и писательница Кэлли и их друг Джаспер, помешанный на собачьих гонках, - находят в комнате соседа-ученого странное изобретение - машину, печатающую фотографии из будущего дня. Теперь Джаспер знает, на каких собак нужно ставить, и Финн и Кэлли могут, наконец, посвятить себя любимым занятиям. Но вскоре визуальные пророчества загадочной машины начинают обескураживать и пугать героев...--Доп. информация: Kinopoisk | IMDB | Sample |--Тип релиза: BDRip 1080p
Контейнер: MKV
Видео: AVC@L4.1, 2pass, 1920x1080 (16:9), 23.976 fps, 10035 kbps.
Аудио 1: AC3 Dolby Digital, 2/0 (L,R) ch, 48 kHz, 192 kbps | MVO |
Аудио 2: AC3 Dolby Digital, 2/0 (L,R) ch, 48 kHz, 384 kbps | DVO |
Аудио 3: DTS, 3/2 (L,C,R,l,r) + LFE ch, 48 kHz, 1536 kbps | Original |
Формат субтитров: softsub (SRT)

MediaInfo

x264 [info]: frame I:1143 Avg QP:14.59 size:159635
x264 [info]: frame P:39366 Avg QP:15.57 size: 77701
x264 [info]: frame B:109299 Avg QP:17.92 size: 42047
x264 [info]: consecutive B-frames: 4.1% 3.3% 25.1% 16.8% 14.8% 31.3% 2.3% 0.9% 1.5%
General
Unique ID : 190803225538853964654312209468665281135 (0x8F8B5D537B92B7688D7E59D4C446BA6F)
Complete name : Time Lapse (2014).mkv
Format : Matroska
Format version : Version 4 / Version 2
File size : 8.82 GiB
Duration : 1h 44mn
Overall bit rate : 12.1 Mbps
Movie name : Ошибка времени / Time Lapse (2014)
Encoded date : UTC 2016-03-26 12:12:52
Writing application : mkvmerge v8.1.0 ('Psychedelic Postcard') 64bit
Writing library : libebml v1.3.1 + libmatroska v1.4.2
Cover : Yes
Attachments : cover.jpg
Video
ID : 1
Format : AVC
Format/Info : Advanced Video Codec
Format profile : High@L4.1
Format settings, CABAC : Yes
Format settings, ReFrames : 4 frames
Codec ID : V_MPEG4/ISO/AVC
Duration : 1h 44mn
Bit rate : 10.0 Mbps
Width : 1 920 pixels
Height : 1 080 pixels
Display aspect ratio : 16:9
Frame rate mode : Constant
Frame rate : 23.976 (23976/1000) fps
Color space : YUV
Chroma subsampling : 4:2:0
Bit depth : 8 bits
Scan type : Progressive
Bits/(Pixel*Frame) : 0.202
Stream size : 7.30 GiB (83%)
Title : Time Lapse (2014)
Writing library : x264 core 148 r2665 a01e339
Encoding settings : cabac=1 / ref=4 / deblock=1:-3:-3 / analyse=0x3:0x133 / me=umh / subme=10 / psy=1 / psy_rd=1.00:0.10 / mixed_ref=1 / me_range=32 / chroma_me=1 / trellis=2 / 8x8dct=1 / cqm=0 / deadzone=21,11 / fast_pskip=0 / chroma_qp_offset=-3 / threads=6 / lookahead_threads=1 / sliced_threads=0 / nr=0 / decimate=1 / interlaced=0 / bluray_compat=0 / constrained_intra=0 / bframes=8 / b_pyramid=2 / b_adapt=2 / b_bias=0 / direct=3 / weightb=1 / open_gop=0 / weightp=2 / keyint=240 / keyint_min=23 / scenecut=40 / intra_refresh=0 / rc=2pass / mbtree=0 / bitrate=10035 / ratetol=1.0 / qcomp=0.60 / qpmin=0 / qpmax=69 / qpstep=4 / cplxblur=20.0 / qblur=0.5 / ip_ratio=1.40 / pb_ratio=1.30 / aq=1:1.00
Language : English
Default : Yes
Forced : No
Audio #1
ID : 2
Format : AC-3
Format/Info : Audio Coding 3
Mode extension : CM (complete main)
Format settings, Endianness : Big
Codec ID : A_AC3
Duration : 1h 44mn
Bit rate mode : Constant
Bit rate : 192 Kbps
Channel(s) : 2 channels
Channel positions : Front: L R
Sampling rate : 48.0 KHz
Frame rate : 31.250 fps (1536 spf)
Compression mode : Lossy
Stream size : 143 MiB (2%)
Title : MVO
Language : Russian
Default : Yes
Forced : No
Audio #2
ID : 3
Format : AC-3
Format/Info : Audio Coding 3
Mode extension : CM (complete main)
Format settings, Endianness : Big
Codec ID : A_AC3
Duration : 1h 43mn
Bit rate mode : Constant
Bit rate : 384 Kbps
Channel(s) : 2 channels
Channel positions : Front: L R
Sampling rate : 48.0 KHz
Frame rate : 31.250 fps (1536 spf)
Compression mode : Lossy
Stream size : 286 MiB (3%)
Title : DVO (RAIM & GUGU)
Language : Russian
Default : No
Forced : No
Audio #3
ID : 4
Format : DTS
Format/Info : Digital Theater Systems
Mode : 16
Format settings, Endianness : Big
Codec ID : A_DTS
Duration : 1h 44mn
Bit rate mode : Constant
Bit rate : 1 509 Kbps
Channel(s) : 6 channels
Channel positions : Front: L C R, Side: L R, LFE
Sampling rate : 48.0 KHz
Frame rate : 93.750 fps (512 spf)
Bit depth : 24 bits
Compression mode : Lossy
Stream size : 1.10 GiB (12%)
Title : Original
Language : English
Default : No
Forced : No
Text #1
ID : 5
Format : UTF-8
Codec ID : S_TEXT/UTF8
Codec ID/Info : UTF-8 Plain Text
Duration : 1h 38mn
Bit rate : 77 bps
Count of elements : 1012
Stream size : 56.2 KiB (0%)
Language : Russian
Default : No
Forced : No
Text #2
ID : 6
Format : UTF-8
Codec ID : S_TEXT/UTF8
Codec ID/Info : UTF-8 Plain Text
Duration : 1h 38mn
Bit rate : 50 bps
Count of elements : 990
Stream size : 36.1 KiB (0%)
Title : Full
Language : English
Default : No
Forced : No
Text #3
ID : 7
Format : UTF-8
Codec ID : S_TEXT/UTF8
Codec ID/Info : UTF-8 Plain Text
Duration : 1h 39mn
Bit rate : 52 bps
Count of elements : 1171
Stream size : 38.4 KiB (0%)
Title : SDH
Language : English
Default : No
Forced : No
Menu
00:00:00.000 : en:Chapter 1
00:04:39.529 : en:Chapter 2
00:14:20.568 : en:Chapter 3
00:25:30.403 : en:Chapter 4
00:34:59.597 : en:Chapter 5
00:44:53.982 : en:Chapter 6
00:55:05.301 : en:Chapter 7
01:00:37.717 : en:Chapter 8
01:10:58.420 : en:Chapter 9
01:18:21.488 : en:Chapter 10
01:28:01.734 : en:Chapter 11
01:38:57.973 : en:Chapter 12
01:44:07.991 : en:Chapter 13

Скриншоты

[iv-torrents.ru].t55648.torrent
Торрент: Зарегистрирован [ 2016-03-29 10:00 ] · 3610AC82CFB2023ADDDE400E48E63A5FBF41766F

Скачать .torrent

Скачать

22 KB

Статус: проверено
Скачан: 0 раз
Размер: 8.82 GB
terms.php
Похожие темы


Показать сообщения:    

Текущее время: 16-Дек 13:16

Часовой пояс: UTC ± 0


Вы не можете начинать темы
Вы не можете отвечать на сообщения
Вы не можете редактировать свои сообщения
Вы не можете удалять свои сообщения
Вы не можете голосовать в опросах
Вы не можете прикреплять файлы к сообщениям
Вы можете скачивать файлы

!ВНИМАНИЕ!
Сайт не предоставляет электронные версии произведений, а занимается лишь коллекционированием и каталогизацией ссылок, присылаемых и публикуемых на форуме нашими читателями. Если вы являетесь правообладателем какого-либо представленного материала и не желаете, чтобы ссылка на него находилась в нашем каталоге, свяжитесь с нами, и мы незамедлительно удалим ее. Файлы для обмена на трекере предоставлены пользователями сайта, и администрация не несет ответственности за их содержание. Просьба не заливать файлы, защищенные авторскими правами, а также файлы нелегального содержания!