Ивановский Торрент трекер
Яндекс.Погода
 

[Цитировать]
HUNTER

Очень голодные игры / The Starving Games«Этот фильм сожжёт ваши калории дотла»
-
Год выпуска: 2013
Страна: США
Жанр: Комедия
Продолжительность: 01:22:17
Перевод: Дублированный [Чистый звук]-В ролях: Майра Уолш, Брэнт Догерти, Александрия Деберри, Коди Кристиан, Ник Гомес, Дидрих Бадер, Лорен Боулз, Эрик Борк, Джозеф Авиль, Элис Форд-Режиссёр: Джейсон Фридберг, Аарон Зельцер-Описание: Храбрая девушка по имени Кантмисс Эвершот вызывается добровольцем для участия в «Играх за хавчик». Однако она даже предположить не могла, чем всё это закончится и кто будет сражаться вместе с ней.-семпл-Качество: HDRip-AVC
Формат: MKV
Видео кодек: H264
Аудио кодек: AC3
Видео: MPEG4 AVC, 1024 x 560, ~2157 kb/s, 23.97 fps
Аудио: AC3, 2 ch, 48КHz, 256 kb/s-

MI


Format : Matroska
File size : 1.42 GiB
Duration : 1h 22mn
Overall bit rate : 2 462 Kbps
Writing application : Lavf51.12.1
Writing library : Lavf51.12.1
Video
ID : 1
Format : AVC
Format/Info : Advanced Video Codec
Format profile : Baseline@L3.1
Format settings, CABAC : No
Format settings, ReFrames : 1 frame
Muxing mode : Container profile=Unknown@3.1
Codec ID : V_MPEG4/ISO/AVC
Duration : 1h 22mn
Bit rate : 2 157 Kbps
Width : 1 024 pixels
Height : 560 pixels
Display aspect ratio : 16:9
Frame rate mode : Variable
Frame rate : 23.976 fps
Resolution : 24 bits
Colorimetry : 4:2:0
Scan type : Progressive
Bits/(Pixel*Frame) : 0.157
Stream size : 1.24 GiB (88%)
Audio
ID : 2
Format : AC-3
Format/Info : Audio Coding 3
Codec ID : A_AC3
Duration : 1h 22mn
Bit rate mode : Constant
Bit rate : 256 Kbps
Channel(s) : 2 channels
Channel positions : L R
Sampling rate : 48.0 KHz
Resolution : 32 bits
Stream size : 151 MiB (10%)

рейтинг:


Рейтинг:

скриншоты:




Показать сообщения:    

Текущее время: 18-Окт 08:25

Часовой пояс: UTC - 1


Вы не можете начинать темы
Вы не можете отвечать на сообщения
Вы не можете редактировать свои сообщения
Вы не можете удалять свои сообщения
Вы не можете голосовать в опросах
Вы не можете прикреплять файлы к сообщениям
Вы не можете скачивать файлы

!ВНИМАНИЕ!
Сайт не предоставляет электронные версии произведений, а занимается лишь коллекционированием и каталогизацией ссылок, присылаемых и публикуемых на форуме нашими читателями. Если вы являетесь правообладателем какого-либо представленного материала и не желаете, чтобы ссылка на него находилась в нашем каталоге, свяжитесь с нами, и мы незамедлительно удалим ее. Файлы для обмена на трекере предоставлены пользователями сайта, и администрация не несет ответственности за их содержание. Просьба не заливать файлы, защищенные авторскими правами, а также файлы нелегального содержания!