Ивановский Торрент трекер
Яндекс.Погода
 

[Цитировать]
HUNTER

Ох уж эти 70-е / That '70s Show
-Год выпуска: 1998
Страна: США
Жанр: комедия
Продолжительность: ~00:20:00
Перевод: Профессиональный (многоголосый, закадровый) [NICE-MEDIA]
Субтитры: присутствуют (русские [8 серия], английские)-В ролях: Мила Кунис, Дэнни Мастерсон, Лаура Препон, Уилмер Вальдеррама, Дебра Джо Рапп, Кертвуд Смит, Дон Старк, Эштон Катчер, Тофер Грейс, Таня Робертс, Томми Чонг, Лиза Робин Келли, Джош Мейерс, Мо Гаффни, Эллисон Мунн, Тим Рейд, Шеннон Элизабет
Режиссёр: Дэвид Трейнер / David Trainer-Описание: «Ох уж эти 70-е» рассказывает о жизни нескольких 17 летних подростков живущих в Поинт Плейс, Висконсин 1976 год.
Голова их группы, Эрик Форман, который живет под надзором родителей, Рэда и Китти. По соседству с ним живет девушка, Донна Пинсиотти, и ее родители, Боб и Мидж. Остальные участники тусовки: Фез, иностранный студент по обмену, который пытается понять Американскую культуру, Джеки Бургхат, ее бывший и настоящий парень, Майкл Келсо, и Стивен Хайд, конспиролог который верит что Ксерокс захватит весь мир. Они обычно проводят время в подвале дома Эрика, думая о своей жизни, родителях и будущем, но им удается постоянно попадать в забавные ситуации и неудачи, живя своей нелегкой жизнью подростков.
-Качество: BDRip 720p
Формат: MKV
Видео кодек: H.264
Аудио кодек: AC3
Видео: 1280x720, ~4000 Кбит/сек at 23.976 fps
Аудио1: NICE-MEDIA: 192 Кбит/сек, 2 каналы, 48.0 КГц
Аудио2: Оригинал: 192 Кбит/сек, 2 каналы, 48.0 КГц

MediaInfo

Ц Цитата: General
Unique ID : 250562995619148971970935211301943011977 (0xBC80AD789FC93C86AFE55FA5D8066A89)
Complete name : That.'70s.Show.S01E01.That.'70s.Pilot.BDRip.720p.x264.-Nesmertelnoe.oruzhie.mkv
Format : Matroska
Format version : Version 2
File size : 772 MiB
Duration : 22mn 31s
Overall bit rate : 4 790 Kbps
Movie name : Ох уж эти 70-е / Шоу 70-х / That '70s Show / Сезон: 1 / Эпизод: 01 - Пилот
Encoded date : UTC 2012-04-10 15:49:07
Writing application : mkvmerge v5.4.0 ('Piper') built on Mar 10 2012 13:34:39
Writing library : libebml v1.2.3 + libmatroska v1.3.0
Video
ID : 1
Format : AVC
Format/Info : Advanced Video Codec
Format profile : High@L4.1
Format settings, CABAC : Yes
Format settings, ReFrames : 5 frames
Codec ID : V_MPEG4/ISO/AVC
Duration : 22mn 31s
Bit rate : 4 025 Kbps
Width : 1 280 pixels
Height : 720 pixels
Display aspect ratio : 16:9
Frame rate : 23.976 fps
Color space : YUV
Chroma subsampling : 4:2:0
Bit depth : 8 bits
Scan type : Progressive
Bits/(Pixel*Frame) : 0.182
Stream size : 633 MiB (82%)
Writing library : x264 core 120 r2164 da19765
Encoding settings : cabac=1 / ref=5 / deblock=1:0:0 / analyse=0x3:0x113 / me=umh / subme=8 / psy=1 / psy_rd=1.00:0.00 / mixed_ref=1 / me_range=16 / chroma_me=1 / trellis=1 / 8x8dct=1 / cqm=0 / deadzone=21,11 / fast_pskip=1 / chroma_qp_offset=-2 / threads=12 / sliced_threads=0 / nr=0 / decimate=1 / interlaced=0 / bluray_compat=0 / constrained_intra=0 / bframes=3 / b_pyramid=2 / b_adapt=2 / b_bias=0 / direct=3 / weightb=1 / open_gop=0 / weightp=2 / keyint=240 / keyint_min=24 / scenecut=40 / intra_refresh=0 / rc_lookahead=50 / rc=2pass / mbtree=1 / bitrate=4025 / ratetol=1.0 / qcomp=0.60 / qpmin=0 / qpmax=69 / qpstep=4 / cplxblur=20.0 / qblur=0.5 / ip_ratio=1.40 / aq=1:1.00
Language : English
Default : Yes
Forced : No
Audio #1
ID : 2
Format : AC-3
Format/Info : Audio Coding 3
Mode extension : CM (complete main)
Codec ID : A_AC3
Duration : 22mn 31s
Bit rate mode : Constant
Bit rate : 384 Kbps
Channel(s) : 6 channels
Channel positions : Front: L C R, Side: L R, LFE
Sampling rate : 48.0 KHz
Bit depth : 16 bits
Compression mode : Lossy
Stream size : 61.9 MiB (8%)
Title : MVO (Несмертельное оружие)
Language : Russian
Default : Yes
Forced : No
Audio #2
ID : 3
Format : AC-3
Format/Info : Audio Coding 3
Mode extension : CM (complete main)
Codec ID : A_AC3
Duration : 22mn 31s
Bit rate mode : Constant
Bit rate : 384 Kbps
Channel(s) : 6 channels
Channel positions : Front: L C R, Side: L R, LFE
Sampling rate : 48.0 KHz
Bit depth : 16 bits
Compression mode : Lossy
Stream size : 61.9 MiB (8%)
Title : Original
Language : English
Default : No
Forced : No
Text
ID : 4
Format : UTF-8
Codec ID : S_TEXT/UTF8
Codec ID/Info : UTF-8 Plain Text
Language : English
Default : No
Forced : No
Menu
00:00:00.000 : en:00:00:00.000
00:04:25.515 : en:00:04:25.515
00:13:32.812 : en:00:13:32.812
-

Рейтинг

Рейтинг:

Скриншоты

Показать сообщения:    

Текущее время: 18-Окт 15:53

Часовой пояс: UTC - 1


Вы не можете начинать темы
Вы не можете отвечать на сообщения
Вы не можете редактировать свои сообщения
Вы не можете удалять свои сообщения
Вы не можете голосовать в опросах
Вы не можете прикреплять файлы к сообщениям
Вы не можете скачивать файлы

!ВНИМАНИЕ!
Сайт не предоставляет электронные версии произведений, а занимается лишь коллекционированием и каталогизацией ссылок, присылаемых и публикуемых на форуме нашими читателями. Если вы являетесь правообладателем какого-либо представленного материала и не желаете, чтобы ссылка на него находилась в нашем каталоге, свяжитесь с нами, и мы незамедлительно удалим ее. Файлы для обмена на трекере предоставлены пользователями сайта, и администрация не несет ответственности за их содержание. Просьба не заливать файлы, защищенные авторскими правами, а также файлы нелегального содержания!