Ивановский Торрент трекер
Яндекс.Погода
 

[Цитировать]
HUNTER

Карапузы в Париже
Rugrats in Paris: The Movie - Rugrats II
Страна: США, Германия
Жанр: мультфильм, комедия, приключения, семейный
Продолжительность: 01:18:28
Год выпуска: 2000-Перевод: Профессиональный (Дублированный)
Перевод: Профессиональный (Многоголосый закадровый)
Перевод: Авторский (Одноголосый закадровый) - С. Визгунов
Русские субтитры: нет
Режиссёр: Стиг Бергквист, Пол Димайер / Stig Bergqvist, Paul Demeyer-Роли озвучивали: Элизабет Дэйли, Тара Стронг, Шерил Чейз, Кристин Кавана, Кри Саммер, Кэт Сауси, Майкл Белл, Тресс МакНилл, Кэйси Касэм, Джо Аляски
Роли дублировали: Татьяна Весёлкина, Ольга Голованова, Никита Прозоровский-Описание: Приключения продолжаются! Наши любимые карапузы решили взять приступом город Париж! Берегись Франция: самые отчаянные малыши на свете решили осчастливить тебя своим внезапным визитом. Земля древних галлов доживает свои последние спокойные часы перед тем, как на нее ступит нога карапуза…-Релиз: | | -• Работа с WEB-DL и звуком -Azureus--Качество: WEB-DLRip
Формат: AVI
Видео: 704x400 (1.76:1), 23,976 fps, XviD 65 ~2 275 kbps avg, 0.34 bit/pixel
Аудио: 48 kHz, AC3 Dolby Digital, 2/0 (L,R) ch, ~192 kbps |DUB|
Аудио: 48 kHz, AC3 Dolby Digital, 2/0 (L,R) ch, ~192 kbps |MVO|
Аудио: 48 kHz, AC3 Dolby Digital, 2/0 (L,R) ch, ~192 kbps |AVO| отдельно
Аудио: 48 kHz, AC3 Dolby Digital, 2/0 (L,R) ch, ~192 kbps |ENG| отдельно
Субтитры: отсутствуют

MI


Общее
Полное имя : E:\incarcare\rip gata\Rugrats.In.Paris.The.Movie.2000.WEB-DLRip\Rugrats.In.Paris.The.Movie.2000.WEB-DLRip.avi
Формат : AVI
Формат/Информация : Audio Video Interleave
Размер файла : 1,46 Гбайт
Продолжительность : 1 ч. 18 м.
Общий поток : 2673 Кбит/сек
Программа кодирования : VirtualDubMod 1.5.10.2 (build 2540/release)
Библиотека кодирования : VirtualDubMod build 2540/release
Видео
Идентификатор : 0
Формат : MPEG-4 Visual
Профиль формата : Advanced Simple@L5
Параметр BVOP формата : 1
Параметр QPel формата : Нет
Параметр GMC формата : Без точки перехода
Параметр матрицы формата : Выборочная
Идентификатор кодека : XVID
Идентификатор кодека/Подсказка : XviD
Продолжительность : 1 ч. 18 м.
Битрейт : 2275 Кбит/сек
Ширина : 704 пикселя
Высота : 400 пикселей
Соотношение сторон : 16:9
Частота кадров : 23,976 кадра/сек
Цветовое пространство : YUV
Субдискретизация насыщенности : 4:2:0
Битовая глубина : 8 бит
Тип развёртки : Прогрессивная
Метод сжатия : С потерями
Бит/(Пиксели*Кадры) : 0.337
Размер потока : 1,25 Гбайт (85%)
Библиотека кодирования : XviD 65
Аудио #1
Идентификатор : 1
Формат : AC-3
Формат/Информация : Audio Coding 3
Расширение режима : CM (complete main)
Параметр Endianness формата : Big
Идентификатор кодека : 2000
Продолжительность : 1 ч. 18 м.
Вид битрейта : Постоянный
Битрейт : 192 Кбит/сек
Каналы : 2 канала
Расположение каналов : Front: L R
Частота : 48,0 КГц
Метод сжатия : С потерями
Размер потока : 108 Мбайт (7%)
Выравнивание : Разделение по промежуткам
Продолжительность промежутка : 42 мс. (1,00 видеокадр)
Время предзагрузки промежутка : 500 мс.
Аудио #2
Идентификатор : 2
Формат : AC-3
Формат/Информация : Audio Coding 3
Расширение режима : CM (complete main)
Параметр Endianness формата : Big
Идентификатор кодека : 2000
Продолжительность : 1 ч. 18 м.
Вид битрейта : Постоянный
Битрейт : 192 Кбит/сек
Каналы : 2 канала
Расположение каналов : Front: L R
Частота : 48,0 КГц
Метод сжатия : С потерями
Размер потока : 108 Мбайт (7%)
Выравнивание : Разделение по промежуткам
Продолжительность промежутка : 42 мс. (1,00 видеокадр)
Время предзагрузки промежутка : 500 мс.

Скриншоты



Показать сообщения:    

Текущее время: 11-Дек 23:10

Часовой пояс: UTC ± 0


Вы не можете начинать темы
Вы не можете отвечать на сообщения
Вы не можете редактировать свои сообщения
Вы не можете удалять свои сообщения
Вы не можете голосовать в опросах
Вы не можете прикреплять файлы к сообщениям
Вы не можете скачивать файлы

!ВНИМАНИЕ!
Сайт не предоставляет электронные версии произведений, а занимается лишь коллекционированием и каталогизацией ссылок, присылаемых и публикуемых на форуме нашими читателями. Если вы являетесь правообладателем какого-либо представленного материала и не желаете, чтобы ссылка на него находилась в нашем каталоге, свяжитесь с нами, и мы незамедлительно удалим ее. Файлы для обмена на трекере предоставлены пользователями сайта, и администрация не несет ответственности за их содержание. Просьба не заливать файлы, защищенные авторскими правами, а также файлы нелегального содержания!