Важное объявление!
У Нас Все раздачи мультитрекерные, при нуле пиров в релизах, можете смело вставать на закачку!
 
Автор Сообщение

HUNTER

Стаж:
4 года 7 месяцев
Сообщений:
61590

Репутация: 101

[+] [-]
Вне форума [Профиль] [ЛС]

Карапузы в Париже
Rugrats in Paris: The Movie
«France never had a chance!»
Год выпуска: 2000
Страна: США, Германия
Жанр: мультфильм, комедия, приключения, семейный
Продолжительность: 01:18:28
Перевод:
Профессиональный (Дублированный) - CTC
Профессиональный (Многоголосый закадровый)
Авторский (Одноголосый закадровый) - С.Визгунов
русские субтитры: есть-Режиссёр: Стиг Бергквист : Stig Bergqvist, Пол Димайер : Paul Demeyer-Роли озвучивали: Элизабет Дэйли, Тара Стронг, Шерил Чейз, Кристин Кавана, Кри Саммер, Кэт Сауси, Майкл Белл, Тресс МакНилл, Кэйси Касэм, Джо Аляски
Роли дублировали: Татьяна Весёлкина, Ольга Голованова, Никита Прозоровский-Описание: Приключения продолжаются! Наши любимые карапузы решили взять приступом город Париж! Берегись Франция: самые отчаянные малыши на свете решили осчастливить тебя своим внезапным визитом. Земля древних галлов доживает свои последние спокойные часы перед тем, как на нее ступит нога карапуза…- релиз: -- Работа с WEB-DL и звуком -Azureus--Качество: WEB-DL 720p
Формат: MKV
Видео кодек: AVC
Аудио кодек: AC3
Видео: 1280x720 , 23,976 fps, ~4385 kbps avg, 0.198 bit/pixel
Аудио #1: [RUS] 48 kHz, AC3 Dolby Digital, 2/0 (L,R) ch, ~192 kbps kbps avg - DUB
Аудио #2: [RUS] 48 kHz, AC3 Dolby Digital, 2/0 (L,R) ch, ~192 kbps kbps avg - MVO
Аудио #4: [RUS] 48 kHz, AC3 Dolby Digital, 2/0 (L,R) ch, ~192 kbps kbps avg - AVO /С.Визгунов/
Аудио #6: [ENG] 48 kHz, AC3 Dolby Digital, 2/0 (L,R) ch, ~224 kbps kbps avg

MediaInfo

Общее
Уникальный идентификатор : 248239249612049632670696867436795348685 (0xBAC123F290C7271ABC3839B03D7146CD)
Полное имя : D:\Im\Ох, уж эти детки\Rugrats In Paris.The Movie.2000.WEB-DL 720p.mkv
Формат : Matroska
Версия формата : Version 4 / Version 2
Размер файла : 2,90 Гбайт
Продолжительность : 1 ч. 18 м.
Общий поток : 5291 Кбит/сек
Название фильма : Rugrats In Paris.The Movie.2000.WEB-DL 720p -Azureus-
Дата кодирования : UTC 2015-01-04 22:10:31
Программа кодирования : mkvmerge v7.4.0 ('Circles') 32bit built on Dec 12 2014 12:10:09
Библиотека кодирования : libebml v1.3.0 + libmatroska v1.4.1
DURATION : 01:18:28.032000000
NUMBER_OF_FRAMES : 147126
NUMBER_OF_BYTES : 112992768
_STATISTICS_WRITING_APP : mkvmerge v7.4.0 ('Circles') 32bit built on Dec 12 2014 12:10:09
_STATISTICS_WRITING_DATE_UTC : 2015-01-04 22:10:31
_STATISTICS_TAGS : BPS DURATION NUMBER_OF_FRAMES NUMBER_OF_BYTES
Видео
Идентификатор : 1
Формат : AVC
Формат/Информация : Advanced Video Codec
Профиль формата : Main@L3.1
Параметр CABAC формата : Да
Параметр ReFrames формата : 4 кадра
Идентификатор кодека : V_MPEG4/ISO/AVC
Продолжительность : 1 ч. 18 м.
Битрейт : 4385 Кбит/сек
Ширина : 1280 пикселей
Высота : 720 пикселей
Соотношение сторон : 16:9
Режим частоты кадров : Переменный
Частота кадров : 23,976 кадра/сек
Цветовое пространство : YUV
Субдискретизация насыщенности : 4:2:0
Битовая глубина : 8 бит
Тип развёртки : Прогрессивная
Бит/(Пиксели*Кадры) : 0.198
Размер потока : 2,40 Гбайт (83%)
Язык : English
Default : Да
Forced : Нет
Основные цвета : BT.709-5, BT.1361, IEC 61966-2-4, SMPTE RP177
Характеристики трансфера : BT.709-5, BT.1361
Коэффициенты матрицы : BT.709-5, BT.1361, IEC 61966-2-4 709, SMPTE RP177
Аудио #1
Идентификатор : 2
Формат : AC-3
Формат/Информация : Audio Coding 3
Расширение режима : CM (complete main)
Идентификатор кодека : A_AC3
Продолжительность : 1 ч. 18 м.
Вид битрейта : Постоянный
Битрейт : 192 Кбит/сек
Каналы : 2 канала
Расположение каналов : Front: L R
Частота : 48,0 КГц
Битовая глубина : 16 бит
Метод сжатия : С потерями
Размер потока : 108 Мбайт (4%)
Заголовок : DUB
Язык : Russian
Default : Да
Forced : Нет
Аудио #2
Идентификатор : 3
Формат : AC-3
Формат/Информация : Audio Coding 3
Расширение режима : CM (complete main)
Идентификатор кодека : A_AC3
Продолжительность : 1 ч. 18 м.
Вид битрейта : Постоянный
Битрейт : 192 Кбит/сек
Каналы : 2 канала
Расположение каналов : Front: L R
Частота : 48,0 КГц
Битовая глубина : 16 бит
Метод сжатия : С потерями
Размер потока : 108 Мбайт (4%)
Заголовок : MVO
Язык : Russian
Default : Нет
Forced : Нет
Аудио #3
Идентификатор : 4
Формат : AC-3
Формат/Информация : Audio Coding 3
Расширение режима : CM (complete main)
Идентификатор кодека : A_AC3
Продолжительность : 1 ч. 18 м.
Вид битрейта : Постоянный
Битрейт : 192 Кбит/сек
Каналы : 2 канала
Расположение каналов : Front: L R
Частота : 48,0 КГц
Битовая глубина : 16 бит
Метод сжатия : С потерями
Размер потока : 108 Мбайт (4%)
Заголовок : AVO - Сергей Визгунов
Язык : Russian
Default : Нет
Forced : Нет
Аудио #4
Идентификатор : 5
Формат : AC-3
Формат/Информация : Audio Coding 3
Расширение режима : CM (complete main)
Идентификатор кодека : A_AC3
Продолжительность : 1 ч. 18 м.
Вид битрейта : Постоянный
Битрейт : 224 Кбит/сек
Каналы : 2 канала
Расположение каналов : Front: L R
Частота : 48,0 КГц
Битовая глубина : 16 бит
Метод сжатия : С потерями
Задержка видео : 5 мс.
Размер потока : 126 Мбайт (4%)
Заголовок : ENG
Язык : English
Default : Нет
Forced : Нет
____________________________________________
Стою на раздаче до 5 дней.
Просьба скачавшим как можно дольше не покидать раздачу!
ВСЕМ ПРИЯТНОГО ПРОСМОТРА!_________________________________________

_________________
Показать сообщения:    

Текущее время: Сегодня 14:23

Часовой пояс: GMT



Вы не можете начинать темы
Вы не можете отвечать на сообщения
Вы не можете редактировать свои сообщения
Вы не можете удалять свои сообщения
Вы не можете голосовать в опросах
Вы не можете прикреплять файлы к сообщениям
Вы не можете скачивать файлы
Наши партнеры: интернет магазин Ивановского трикотажа textilla.ru