Ивановский Торрент трекер
Яндекс.Погода
 

[Цитировать]
HUNTER

Ох, уж эти детки в лесу (Карапузы) / The Rugrats Movie
Страна: США
Жанр: мультфильм, драма, комедия, приключения, семейный
Продолжительность: 01:19:58
Год выпуска: 1998
Перевод 1: Профессиональный (дублированный) СТСПеревод 2: Профессиональный (дублированный) ТНТ
Перевод 3: Профессиональный (многоголосый закадровый) Премьер Видео ФильмПеревод 4: Авторский (одноголосый закадровый) Александр Кашкин (Первомайский)Перевод 5: Авторский (одноголосый закадровый) Сергей ВизгуновОригинальная аудио-дорожка: есть (английская)
Русские субтитры: нет-Режиссёр: Нортон Вирген / Norton Virgien, Игорь Ковалев / Igor Kovalyov-Роли озвучивали: Дэвид Спейд, Вупи Голдберг, Элизабет Дэйли, Кристин Кавана, Кэт Сауси, Тара Стронг, Шерил Чейз, Мелани Чартофф, Джек Райли, Джо Аляски-Описание: Малыша Томми и его верных друзей — Чакки Финстера, близняшек Фила и Лили ДеВиль ждут невероятные и головокружительные приключения. Все началось с того, что у Томми родился братик Дилан. Томми он очень не понравился, как, впрочем, и его сорванцам-приятелям. Посовещавшись, компания приняла решение: вернуть крошку Дилана туда, откуда он взялся — в родильное отделение больницы. Прихватив Дилана, ребятишки отправились в путешествие, но потерялись в дремучем лесу. Смогут ли карапузы найти дорогу домой?-Релиз от: -Благодарности:
saylione - Видео
xfiles и Lexa1988-L1 - звук СТС
bora86bora - звук премьер Видео Фильм
ripak22mee - звук А.Кашкин
multmir - звук С.Визгунов
*Sergeant_am* - работа со звуком
-Семпл: http://multi-up.com/1079100-Качество: WEB-DLRip
Формат: MKV-Видео: 1912x1076 , 16:9, 23,976 fps, ~5230 kbps avg
Аудио 1: 48 kHz, AC3 Dolby Digital, 2/0 (L,R) ch, ~256 kbps kbps avg (DUB) СТС
Аудио 2: 48 kHz, AC3 Dolby Digital, 2/0 (L,R) ch, ~192 kbps kbps avg (DUB) ТНТ
Аудио 3: 48 kHz, FLAC Dolby Digital, 2/0 (L,R) ch, ~860 kbps avg (MVO)
Аудио 4: 48 kHz, AC3 Dolby Digital, 2/0 (L,R) ch, ~192 kbps kbps avg (AVO) А.Кашкин
Аудио 5: 48 kHz, AC3 Dolby Digital, 3/2 (L,C,R,l,r) + LFE ch, ~448 kbps avg (AVO) С.Визгунов
Аудио 4: 48 kHz, AC3 Dolby Digital, 3/2 (L,C,R,l,r) + LFE ch, ~448 kbps avg (Eng)
Субтитры: английские

Отчёт MediaInfo

ОбщееУникальный идентификатор : 208444656418715751805641933730380842363 (0x9CD0FB059D7EB000BCA06F789085057B)Полное имя : C:\Ох, уж эти детки в лесу.mkvФормат : MatroskaВерсия формата : Version 2Размер файла : 4,26 ГбайтПродолжительность : 1 ч. 19 м.Режим общего битрейта : ПеременныйОбщий поток : 7627 Кбит/секДата кодирования : UTC 2015-12-11 16:10:18Программа кодирования : mkvmerge v4.0.0 ('The Stars were mine') сборка от Jun 6 2010 16:18:42Библиотека кодирования : libebml v1.0.0 + libmatroska v1.0.0
ВидеоИдентификатор : 1Формат : AVCФормат/Информация : Advanced Video CodecПрофиль формата : High@L4Параметр CABAC формата : ДаПараметр ReFrames формата : 4 кадраИдентификатор кодека : V_MPEG4/ISO/AVCПродолжительность : 1 ч. 19 м.Ширина : 1912 пикселейВысота : 1076 пикселейСоотношение сторон : 16:9Режим частоты кадров : ПостоянныйЧастота кадров : 23,976 кадра/секЦветовое пространство : YUVСубдискретизация насыщенности : 4:2:0Битовая глубина : 8 битТип развёртки : ПрогрессивнаяDefault : НетForced : НетЦветовой диапазон : LimitedОсновные цвета : BT.709Характеристики трансфера : BT.709Коэффициенты матрицы : BT.709
Аудио #1Идентификатор : 2Формат : AC-3Формат/Информация : Audio Coding 3Расширение режима : CM (complete main)Параметр Endianness формата : BigИдентификатор кодека : A_AC3Продолжительность : 1 ч. 19 м.Вид битрейта : ПостоянныйБитрейт : 256 Кбит/секКаналы : 2 каналаРасположение каналов : Front: L RЧастота : 48,0 КГцЧастота кадров : 31,250 кадров/сек (1536 spf)Метод сжатия : С потерямиРазмер потока : 146 Мбайт (3%)Заголовок : Профессиональный дублированный (СТС) 2008 годЯзык : RussianDefault : НетForced : Нет
Аудио #2Идентификатор : 3Формат : AC-3Формат/Информация : Audio Coding 3Расширение режима : CM (complete main)Параметр Endianness формата : BigИдентификатор кодека : A_AC3Продолжительность : 1 ч. 19 м.Вид битрейта : ПостоянныйБитрейт : 192 Кбит/секКаналы : 2 каналаРасположение каналов : Front: L RЧастота : 48,0 КГцЧастота кадров : 31,250 кадров/сек (1536 spf)Метод сжатия : С потерямиРазмер потока : 110 Мбайт (3%)Заголовок : Профессиональный дублированный (ТНТ)Язык : RussianDefault : НетForced : Нет
Аудио #3Идентификатор : 4Формат : FLACФормат/Информация : Free Lossless Audio CodecИдентификатор кодека : A_FLACПродолжительность : 1 ч. 19 м.Вид битрейта : ПеременныйКаналы : 2 каналаЧастота : 48,0 КГцБитовая глубина : 16 битЗаголовок : Профессиональный многоголосый закадровый (Премьер Видео Фильм)Библиотека кодирования : libFLAC 1.2.1 (UTC 2007-09-17)Язык : RussianDefault : НетForced : Нет
Аудио #4Идентификатор : 5Формат : AC-3Формат/Информация : Audio Coding 3Расширение режима : CM (complete main)Параметр Endianness формата : BigИдентификатор кодека : A_AC3Продолжительность : 1 ч. 19 м.Вид битрейта : ПостоянныйБитрейт : 192 Кбит/секКаналы : 2 каналаРасположение каналов : Front: L RЧастота : 48,0 КГцЧастота кадров : 31,250 кадров/сек (1536 spf)Метод сжатия : С потерямиРазмер потока : 110 Мбайт (3%)Заголовок : Авторский одноголосый закадровый (Александр Кашкин)Язык : RussianDefault : НетForced : Нет
Аудио #5Идентификатор : 6Формат : AC-3Формат/Информация : Audio Coding 3Расширение режима : CM (complete main)Параметр Endianness формата : BigИдентификатор кодека : A_AC3Продолжительность : 1 ч. 19 м.Вид битрейта : ПостоянныйБитрейт : 448 Кбит/секКаналы : 6 каналовРасположение каналов : Front: L C R, Side: L R, LFEЧастота : 48,0 КГцЧастота кадров : 31,250 кадров/сек (1536 spf)Метод сжатия : С потерямиРазмер потока : 256 Мбайт (6%)Заголовок : Авторский одноголосый закадровый (Сергей Визгунов)Язык : RussianDefault : НетForced : Нет
Аудио #6Идентификатор : 7Формат : AC-3Формат/Информация : Audio Coding 3Расширение режима : CM (complete main)Параметр Endianness формата : BigИдентификатор кодека : A_AC3Продолжительность : 1 ч. 19 м.Вид битрейта : ПостоянныйБитрейт : 448 Кбит/секКаналы : 6 каналовРасположение каналов : Front: L C R, Side: L R, LFEЧастота : 48,0 КГцЧастота кадров : 31,250 кадров/сек (1536 spf)Метод сжатия : С потерямиРазмер потока : 256 Мбайт (6%)Язык : EnglishDefault : НетForced : Нет
ТекстИдентификатор : 8Формат : UTF-8Идентификатор кодека : S_TEXT/UTF8Идентификатор кодека/Информация : UTF-8 Plain TextЯзык : EnglishDefault : НетForced : Нет
Меню00:00:00.000 : en:Okie Dokie Jones00:03:27.000 : en:Didi's Baby Shower00:05:44.000 : en:Stu Invents the Perfect Children's Toy00:08:38.000 : en:A Baby is a Gift from a Bob00:12:07.000 : en:The Baby Store00:14:25.000 : en:Dil is Born00:18:47.000 : en:Dil-a-bye00:21:37.000 : en:Tommy gets his Sponsibility00:25:08.000 : en:A Ride to Outside Space00:31:44.000 : en:Stu and Grandpa Lou Search for the Rugrats00:35:54.000 : en:Meet the Press00:38:55.000 : en:We're off to see the Lizard00:43:35.000 : en:Yo ho ho and a bottle of Yum00:47:24.000 : en:Rugrats meet the Monkeys00:52:30.000 : en:One Way or Another00:57:33.000 : en:Tommy and Dil find each other01:03:30.000 : en:The Monkey is Coming01:09:16.000 : en:Rescue on the Bridge01:14:20.000 : en:Everything is back to Norman

Скриншоты

Показать сообщения:    

Текущее время: 20-Сен 19:04

Часовой пояс: UTC - 1


Вы не можете начинать темы
Вы не можете отвечать на сообщения
Вы не можете редактировать свои сообщения
Вы не можете удалять свои сообщения
Вы не можете голосовать в опросах
Вы не можете прикреплять файлы к сообщениям
Вы не можете скачивать файлы

!ВНИМАНИЕ!
Сайт не предоставляет электронные версии произведений, а занимается лишь коллекционированием и каталогизацией ссылок, присылаемых и публикуемых на форуме нашими читателями. Если вы являетесь правообладателем какого-либо представленного материала и не желаете, чтобы ссылка на него находилась в нашем каталоге, свяжитесь с нами, и мы незамедлительно удалим ее. Файлы для обмена на трекере предоставлены пользователями сайта, и администрация не несет ответственности за их содержание. Просьба не заливать файлы, защищенные авторскими правами, а также файлы нелегального содержания!