Важное объявление!
У Нас Все раздачи мультитрекерные, при нуле пиров в релизах, можете смело вставать на закачку!
 
Автор Сообщение

HUNTER

Стаж:
4 года 10 месяцев
Сообщений:
65542

Репутация: 101

[+] [-]
Вне форума [Профиль] [ЛС]

Охотник: Последняя схватка / Lowca. Ostatnie starcie-
Страна: Польша
Студия: Telewizja Polska
Жанр: фэнтези, семейный
Год выпуска: 1994
Продолжительность: 01:26:43-Перевод: Профессиональный (многоголосый закадровый) - Студия "Кадр", ВГТРК, 1995 | Текст читали: Людмила Ильина, Ирина Матюнина, Александр Клюквин
Cубтитры: нет
Оригинальная аудиодорожка: польский-Режиссер: Ежи Лукашевич / Jerzy Lukaszewicz
В ролях: Матеуш Дамецки, Войцех Малайкат, Мирослав Зброевич, Леон Немчик, Каролина Росинска, Йоанна Трепечинска, Томаш Сапрык...- | Релиз: -Описание: Яник - заядлый игрок в компьютерные игры. Его отец - бизнесмен, у него нет достаточно времени на сына. И вот однажды в их жизни появляются два темных характера Торн и Гаэт, которые называются представителями зла. Отец покупает Янику на день рождения новейшую и редчайшую игру. Эта игра сразу после запуска начинает вмешиваться в реальную жизнь. И получается так, что отец Яника оказывается заложником Торна и Гаэта, а освободить его может только сын, которому для этого надо выиграть в игре...-Доп. информация:
- За исходную русскую звуковую дорожку спасибо Посланчик.
- Запись фильма со спутниковой трансляции и работа со звуком - xfiles.
-Семпл: http://sendfile.su/1155807-Тип релиза: HDTV 1080i
Контейнер: TS
Видео: 1920x1080i (16:9), 25.000 fps, AVC, ~7156 Kbps, 0.138 bits/pixel
Аудио 1: Русский, 48.0 KHz, Dolby AC3, 1 ch, 192 kbps
Аудио 2: Polish, 48.0 KHz, Dolby AC3, 2 ch, 192 kbps

MediaInfo

GeneralID : 1 (0x1)Complete name : Y:\Recordings\Movie\Lowca. Ostatnie starcie 1994 TVP HD 1080i.rus.pol.tsFormat : MPEG-TSFile size : 4.81 GiBDuration : 1h 26mnOverall bit rate mode : VariableOverall bit rate : 7 936 KbpsMaximum Overall bit rate : 35.5 Mbps
VideoID : 4113 (0x1011)Menu ID : 1 (0x1)Format : AVCFormat/Info : Advanced Video CodecFormat profile : High@L4Format settings, CABAC : YesFormat settings, ReFrames : 4 framesFormat settings, GOP : M=4, N=32Codec ID : 27Duration : 1h 26mnBit rate : 7 156 KbpsWidth : 1 920 pixelsHeight : 1 080 pixelsDisplay aspect ratio : 16:9Frame rate : 25.000 fpsColor space : YUVChroma subsampling : 4:2:0Bit depth : 8 bitsScan type : InterlacedScan order : Top Field FirstBits/(Pixel*Frame) : 0.138Stream size : 4.34 GiB (90%)Color range : LimitedColor primaries : BT.709Transfer characteristics : BT.709Matrix coefficients : BT.709
Audio #1ID : 4352 (0x1100)Menu ID : 1 (0x1)Format : AC-3Format/Info : Audio Coding 3Mode extension : CM (complete main)Format settings, Endianness : BigCodec ID : 129Duration : 1h 26mnBit rate mode : ConstantBit rate : 192 KbpsChannel(s) : 1 channelChannel positions : Front: CSampling rate : 48.0 KHzCompression mode : LossyStream size : 119 MiB (2%)Language : Russian
Audio #2ID : 4353 (0x1101)Menu ID : 1 (0x1)Format : AC-3Format/Info : Audio Coding 3Mode extension : CM (complete main)Format settings, Endianness : BigCodec ID : 129Duration : 1h 26mnBit rate mode : ConstantBit rate : 192 KbpsChannel(s) : 2 channelsChannel positions : Front: L RSampling rate : 48.0 KHzCompression mode : LossyStream size : 119 MiB (2%)Language : Polish

_________________
Показать сообщения:    

Текущее время: Сегодня 03:03

Часовой пояс: GMT



Вы не можете начинать темы
Вы не можете отвечать на сообщения
Вы не можете редактировать свои сообщения
Вы не можете удалять свои сообщения
Вы не можете голосовать в опросах
Вы не можете прикреплять файлы к сообщениям
Вы не можете скачивать файлы