Важное объявление!
У Нас Все раздачи мультитрекерные, при нуле пиров в релизах, можете смело вставать на закачку!
 
Автор Сообщение

HUNTER

Стаж:
4 года 10 месяцев
Сообщений:
65492

Репутация: 101

[+] [-]
Вне форума [Профиль] [ЛС]

Охотник на крокодилов: Схватка / The Crocodile Hunter: Collision Course
Страна: Австралия, США
Жанр: комедия, приключения, семейный
Год выпуска: 2002
Продолжительность: 01:25:30
Перевод: Профессиональный (многоголосый закадровый)
Cубтитры: нет
Режиссер: Джон Стейнтон / John Stainton
В ролях: Стив Ирвин, Терри Ирвин, Магда Шубански, Дэвид Уэнэм, Лейчи Халм, Аден Янг, Кеннет Рэнсом, Кейт Бихан, Стив Бастони, Стивен Видлер
Описание: «Охотник на крокодилов» — популярное шоу на канале Animal Planet, главные ведущие которого Стив и Терри Ирвин разыскивают диких животных, которые блуждают слишком близко к цивилизации. Стив часто «хватает» животных, подвергая свою жизнь большой опасности. Он известен тем, что его кусали, резали, отравляли, кололи и высмеивали животные, которых он спасает. Стив также любит снимать из любых положений, не смотря на угрозы своей собственной жизни. Когда Стив спасает своего последнего крокодила, то он еще не знает, что этот «детеныш» является на самом деле сверхсекретным оружием ЦРУ, а браконьеры, выслеживающие его — действительно тайные агенты.
Сэмпл: http://multi-up.com/995838
Качество видео: HDTV 1080i
Формат видео: TS
Видео: AVC, 1920х1080, 16:9, 7177 Кбит/сек, 25 fps
Аудио: MPEG Audio, 192 Кбит/сек, 48 КГц, 2 канала

MediaInfo

Общее
Идентификатор : 16 (0x10)
Полное имя : The Crocodile Hunter Collision Course.ts
Формат : MPEG-TS
Размер файла : 4,63 Гбайт
Продолжительность : 1 ч. 25 м.
Режим общего битрейта : Переменный
Общий поток : 7754 Кбит/сек
Видео
Идентификатор : 1606 (0x646)
Идентификатор меню : 606 (0x25E)
Формат : AVC
Формат/Информация : Advanced Video Codec
Профиль формата : High@L4.0
Параметр CABAC формата : Да
Параметр ReFrames формата : 3 кадра
Параметр GOP формата : M=4, N=32
Идентификатор кодека : 27
Продолжительность : 1 ч. 25 м.
Битрейт : 7177 Кбит/сек
Ширина : 1920 пикселей
Высота : 1080 пикселей
Соотношение сторон : 16:9
Частота кадров : 25,000 кадров/сек
Стандарт вещания : PAL
Цветовое пространство : YUV
Субдискретизация насыщенности : 4:2:0
Битовая глубина : 8 бит
Тип развёртки : Чересстрочная
Порядок развёртки : Верхнее поле первое
Бит/(Пиксели*Кадры) : 0.138
Размер потока : 4,28 Гбайт (93%)
Основные цвета : BT.709
Характеристики трансфера : BT.709
Коэффициенты матрицы : BT.709
Аудио
Идентификатор : 2606 (0xA2E)
Идентификатор меню : 606 (0x25E)
Формат : MPEG Audio
Версия формата : Version 1
Профиль формата : Layer 2
Идентификатор кодека : 4
Продолжительность : 1 ч. 25 м.
Вид битрейта : Постоянный
Битрейт : 192 Кбит/сек
Каналы : 2 канала
Частота : 48,0 КГц
Метод сжатия : С потерями
Задержка видео : 34 мс.
Размер потока : 117 Мбайт (2%)
Язык : std
Язык, дополнительно : Clean effects

Скриншот c названием фильма

Скриншоты


_________________
Показать сообщения:    

Текущее время: Сегодня 04:52

Часовой пояс: GMT



Вы не можете начинать темы
Вы не можете отвечать на сообщения
Вы не можете редактировать свои сообщения
Вы не можете удалять свои сообщения
Вы не можете голосовать в опросах
Вы не можете прикреплять файлы к сообщениям
Вы не можете скачивать файлы