Важное объявление!
У Нас Все раздачи мультитрекерные, при нуле пиров в релизах, можете смело вставать на закачку!
 
Автор Сообщение

HUNTER

Стаж:
4 года 10 месяцев
Сообщений:
65561

Репутация: 101

[+] [-]
Вне форума [Профиль] [ЛС]

Охотники на ведьм / Hansel and Gretel: Witch Hunters-
Год выпуска: 2013
Страна: США, Германия
Жанр: ужасы, фэнтези, боевик
Продолжительность: 01:27:56
Перевод:
Профессиональный (дублированный)
Русские субтитры: есть
Оригинальная аудиодорожка: английский-Режиссер: Томми Виркола / Tommy Wirkola
В ролях: Джереми Реннер, Джемма Артертон, Фамке Янссен, Пихла Виитала, Дерек Мирс, Робин Аткин Даунс, Ингрид Болсай Бердал, Джоэнна Кулиг, Томас Манн, Петер Стормаре, Бьорн Сундквис, Райнер Бок, Томас Шарфф, Седрик Ейх, Вегар Хоел.
Описание: Гензель и Гретель — брат и сестра, которым удалось выбраться из коварной ловушки ведьмы, заманивающей детей с помощью уникального пряничного домика. После того как им удалось обхитрить коварную злодейку прошли годы. То, что пришлось им пережить в детстве сделало их сильными и смелыми молодыми людьми. Отведав один раз крови колдуньи, брат и сестра уже не могут остановиться, и они становятся самыми известными охотниками на ведьм. Движимые чувством мести, они путешествуют по всем уголкам света в поисках нечистой силы. Для уничтожения ведьм они используют самое разнообразное оружие и приспособления. Однако, в борьбе со злом, даже лучшие из лучших рискуют попрощаться с жизнью...
-
  • Формат 3D Half SideBySide | Горизонтальная анаморфная стереопара-Качество: BDRip-AVC | Контейнер: MKV | Рип: ThD
    Видео: 1920x1080 (16:9), 23.976 fps, x264@L4.1 ~12300 kbps
    Аудио 1: Russian 48 kHz, AC3, 3/2 (L,C,R,l,r) + LFE ch, 640.00 kbps | BD CEE
    Аудио 2: English 48 kHz, AC3, 3/2 (L,C,R,l,r) + LFE ch, 640.00 kbps | Original
    Субтитры: русские полные, украинские полные, английские полные

    Инфо

    Format : Matroska
    File size : 8.51 GiB
    Duration : 1h 27mn
    Overall bit rate : 13.9 Mbps
    Movie name : Hansel & Gretel: Witch Hunters (2013) - Release for HDCLUB
    Encoded date : UTC 2015-04-12 08:23:38
    Writing application : mkvmerge v6.6.0 ('The Edge Of The In Between') built on Dec 1 2013 17:55:00
    Writing library : libebml v1.3.0 + libmatroska v1.4.1
    Video
    ID : 1
    Format : AVC
    Format/Info : Advanced Video Codec
    Format profile : High@L4.1
    Format settings, CABAC : Yes
    Format settings, ReFrames : 4 frames
    Format settings, GOP : N=15
    Codec ID : V_MPEG4/ISO/AVC
    Duration : 1h 27mn
    Bit rate : 12.3 Mbps
    Width : 1 920 pixels
    Height : 1 080 pixels
    Display aspect ratio : 16:9
    Frame rate : 23.976 fps
    Color space : YUV
    Chroma subsampling : 4:2:0
    Bit depth : 8 bits
    Scan type : Progressive
    Bits/(Pixel*Frame) : 0.247
    Stream size : 7.56 GiB (89%)
    Title : Hansel & Gretel: Witch Hunters (2013) - Release for HDCLUB
    Writing library : x264 core 133 r2334kMod a3ac64b
    Encoding settings : cabac=1 / ref=4 / deblock=1:-3:-3 / analyse=0x3:0x133 / me=umh / subme=11 / psy=1 / fade_compensate=0.00 / psy_rd=1.05:0.00 / mixed_ref=1 / me_range=64 / chroma_me=1 / trellis=2 / 8x8dct=1 / cqm=0 / deadzone=21,11 / fast_pskip=0 / chroma_qp_offset=-2 / threads=15 / lookahead_threads=3 / sliced_threads=0 / nr=0 / decimate=0 / interlaced=0 / bluray_compat=0 / constrained_intra=0 / bframes=12 / b_pyramid=2 / b_adapt=2 / b_bias=0 / direct=3 / weightb=1 / open_gop=0 / weightp=2 / keyint=250 / keyint_min=23 / scenecut=40 / intra_refresh=0 / rc=crf / mbtree=0 / crf=17.0000 / qcomp=0.80 / qpmin=0 / qpmax=69 / qpstep=4 / frame-packing=3 / ip_ratio=1.40 / pb_ratio=1.25 / aq=2:0.85
    Language : English
    Audio #1
    ID : 2
    Format : AC-3
    Format/Info : Audio Coding 3
    Mode extension : CM (complete main)
    Codec ID : A_AC3
    Duration : 1h 27mn
    Bit rate mode : Constant
    Bit rate : 640 Kbps
    Channel(s) : 6 channels
    Channel positions : Front: L C R, Side: L R, LFE
    Sampling rate : 48.0 KHz
    Bit depth : 16 bits
    Stream size : 403 MiB (5%)
    Title : AC3 5.1 @ 640 kbps - DUB, Blu-ray CEE
    Language : Russian
    Audio #2
    ID : 3
    Format : AC-3
    Format/Info : Audio Coding 3
    Mode extension : CM (complete main)
    Codec ID : A_AC3
    Duration : 1h 27mn
    Bit rate mode : Constant
    Bit rate : 640 Kbps
    Channel(s) : 6 channels
    Channel positions : Front: L C R, Side: L R, LFE
    Sampling rate : 48.0 KHz
    Bit depth : 16 bits
    Stream size : 403 MiB (5%)
    Title : AC3 5.1 @ 640 kbps
    Language : English
    Text #1
    ID : 4
    Format : UTF-8
    Codec ID : S_TEXT/UTF8
    Codec ID/Info : UTF-8 Plain Text
    Language : Russian
    Text #2
    ID : 5
    Format : UTF-8
    Codec ID : S_TEXT/UTF8
    Codec ID/Info : UTF-8 Plain Text
    Language : Ukrainian
    Text #3
    ID : 6
    Format : UTF-8
    Codec ID : S_TEXT/UTF8
    Codec ID/Info : UTF-8 Plain Text
    Language : English
    Menu
    00:00:00.000 : en:00:00:00.000
    00:08:56.828 : en:00:08:56.828
    00:15:57.790 : en:00:15:57.790
    00:24:07.112 : en:00:24:07.112
    00:32:17.936 : en:00:32:17.936
    00:40:12.869 : en:00:40:12.869
    00:46:45.636 : en:00:46:45.636
    00:52:22.097 : en:00:52:22.097
    01:00:20.033 : en:01:00:20.033
    01:05:05.652 : en:01:05:05.652
    01:12:49.657 : en:01:12:49.657
    01:19:01.820 : en:01:19:01.820

    Скриншоты


  • _________________
    Показать сообщения:    

    Текущее время: Сегодня 06:41

    Часовой пояс: GMT



    Вы не можете начинать темы
    Вы не можете отвечать на сообщения
    Вы не можете редактировать свои сообщения
    Вы не можете удалять свои сообщения
    Вы не можете голосовать в опросах
    Вы не можете прикреплять файлы к сообщениям
    Вы не можете скачивать файлы