Важное объявление!
У Нас Все раздачи мультитрекерные, при нуле пиров в релизах, можете смело вставать на закачку!
 
Автор Сообщение

HUNTER

Стаж:
4 года 9 месяцев
Сообщений:
65047

Репутация: 101

[+] [-]
Вне форума [Профиль] [ЛС]

Охотники за головами / Hodejegerne-Год выпуска:2011
Страна:Германия, Норвегия
Жанр:боевик, триллер, криминал
Продолжительность:01:36:01
Перевод:Профессиональный (дублированный) [Лицензия]
Субтитры:нет-В ролях:Николай Костер-Вальдау, Юлье Ольгорд, Аксель Хенни, Бор Ове, Йоахим Рафаелсен, Эйвинд Сэндер, Нильс Йорген Каалстад, Карре Хаген Сиднесс, Рейдар Серенсен
Режиссёр:Мортен Тильдум / Morten Tyldum-Описание:Роджер Браун — блестящий «охотник за головами», незаменимый специалист по подбору топ-менеджеров для крупнейших фирм. Он может найти нужного человека на любую должность и его рекомендация — залог получения работы. Чтобы удержать красавицу жену, открывшую на деньги мужа картинную галерею в модном районе, Роджер давно уже живет не по средствам, и, пользуясь своим служебным положением, крадет дорогие картины у претендентов на руководящие должности.
Однажды Роджер встречает голландца Класа Граафа: идеального кандидата для фирмы специализирующейся на навигационном оборудовании и — вот удача! — владельца картины Рубенса, считавшейся утерянной во время Второй Мировой войны. Кража и последующая продажа шедевра может помочь Роджеру навсегда решить все финансовые проблемы.
Но, внезапно, «охотник за головами» сам превращается в добычу.-Качество:DVD9 R5
Формат:DVD-Video
Видео кодек:MPEG2
Аудио кодек: AC3
Видео:PAL 16:9 (720x576(0.772)) MPEG Video, 25,000 кадр/сек, 8000 Кбит/сек
Аудио:Russian (Dolby AC3, 6 ch) 448 Кбит/сек, 48,0 КГц-Релиз группы: -

DVDInfo

Код: copyText_writeLink('this.parentNode.parentNode.nextSibling.nextSibling'); Title:
Size: 6.02 Gb ( 6 309 078 KBytes ) - DVD-9
Enabled regions: 1, 2, 3, 4, 5, 6, 7, 8
VTS_01 :
Play Length: 01:36:01
Video: PAL 16:9 (720x576) VBR, Auto Pan&Scan
Audio:
Russian (Dolby AC3, 6 ch)
VTS_02 :
Play Length: 00:01:21
Video: PAL 16:9 (720x576) VBR, Auto Pan&Scan
Audio:
Russian (Dolby AC3, 2 ch)
Menu Video:
PAL 4:3 (720x576) VBR
Menu Subtitles:
Not specified
Menu English Language Unit :
Root Menu

MediaInfo

Код: copyText_writeLink('this.parentNode.parentNode.nextSibling.nextSibling'); Общее
Полное имя : Е:\Фильмы\Ohotniki.za.golovami.2011.DVD9\VIDEO_TS\VTS_01_2.VOB
Формат : MPEG-PS
Размер файла : 1024 Мбайт
Продолжительность : 16 м.
Общий поток : 8586 Кбит/сек
Видео
Идентификатор : 224 (0xE0)
Формат : MPEG Video
Версия формата : Version 2
Профиль формата : Main@Main
Параметр BVOP формата : Да
Параметр матрицы формата : Выборочная
Параметр GOP формата : M=3, N=15
Продолжительность : 16 м.
Битрейт : 8000 Кбит/сек
Ширина : 720 пикселей
Высота : 576 пикселей
Соотношение сторон : 16:9
Частота кадров : 25,000 кадров/сек
Стандарт вещания : PAL
Цветовое пространство : YUV
Субдискретизация насыщенности : 4:2:0
Битовая глубина : 8 бит
Тип развёртки : Прогрессивная
Метод сжатия : С потерями
Бит/(Пиксели*Кадры) : 0.772
Размер потока : 950 Мбайт (93%)
Аудио
Идентификатор : 189 (0xBD)-128 (0x80)
Формат : AC-3
Формат/Информация : Audio Coding 3
Расширение режима : CM (complete main)
Режим смешивания : DVD-Video
Продолжительность : 16 м.
Вид битрейта : Постоянный
Битрейт : 448 Кбит/сек
Каналы : 6 каналов
Расположение каналов : Front: L C R, Side: L R, LFE
Частота : 48,0 КГц
Битовая глубина : 16 бит
Метод сжатия : С потерями
Задержка видео : -560 мс.
Размер потока : 53,4 Мбайт (5%)

Скриншоты


_________________
Показать сообщения:    

Текущее время: Сегодня 19:50

Часовой пояс: GMT



Вы не можете начинать темы
Вы не можете отвечать на сообщения
Вы не можете редактировать свои сообщения
Вы не можете удалять свои сообщения
Вы не можете голосовать в опросах
Вы не можете прикреплять файлы к сообщениям
Вы не можете скачивать файлы