Важное объявление!
У Нас Все раздачи мультитрекерные, при нуле пиров в релизах, можете смело вставать на закачку!
 
Автор Сообщение

димитри37

Стаж:
4 года 2 месяца
Сообщений:
1236

Репутация: 127

[+] [-]
Вне форума [Профиль] [ЛС]

Охотники за бриллиантами
Год выпуска: 2011
Производство: Россия
Жанр: Детектив
Продолжительность: 8*~0:53
Режиссёр: Александр Котт
В ролях: Алексей Серебряков,Евгений Миронов, Петр Федоров,Александр Новин, Мария Аронова,Владимир Ильин, Авангард Леонтьев, Виталий Кищенко, Антон Гришанин, Виталий Гусев
Описание: В ноябре 1980-го происходит ограбление вдовы А. Толстого. Из квартиры выносят антиквариат, но, главное, пропадает необыкновенной красоты брошь Королевская Лилия, изготовленная для Людовика XV. Поскольку вдова Толстого имеет обширные связи и в СССР и за рубежом, дело получает широкий резонанс, к расследованию привлекаются самые серьезные силы МВД, за ходом следствия следит лично министр МВД Щелоков.
Следствие выходит на участницу ограбления — жену французского дипломата, которая собирается покинуть страну. Задержан и её сообщник, известный одесский вор по кличке Бес. Однако бриллиантов при них не обнаружено. Следователь Шахов раскручивает цепочку, надеясь выйти на заказчика — следы уводят всё выше и выше по служебной лестнице, и расследование становится всё опаснее и опаснее для Шахова.
Сэмпл: http://multi-up.com/888477
Качество: DVDRip
Формат: AVI
Видео кодек: DivX
Аудио кодек: MP3
Видео:720x400 (16:9), 25 fps, DivX MPEG-4 ~1679 kbps avg, 0.233 bit/pixel
Аудио: 48 kHz, MPEG Layer 3, 2 ch, ~128.00 kbps avg

MI

Общее
Полное имя : D:\Торренты\Мои\Ohotniki.za.Brilliantami.(8.serii.iz.8).2011.DIVX.DVDRip\Ohotniki.za.Brilliantami.(1.seriya.iz.8).2011.DIVX.DVDRip.avi
Формат : AVI
Формат/Информация : Audio Video Interleave
Размер файла : 697 Мбайт
Продолжительность : 53 м.
Общий поток : 1817 Кбит/сек
Программа кодирования : VirtualDubMod 1.5.10.2 (build 2540/release)
Библиотека кодирования : VirtualDubMod build 2540/release
Видео
Идентификатор : 0
Формат : MPEG-4 Visual
Профиль формата : Advanced Simple@L5
Параметр BVOP формата : 2
Параметр QPel формата : Нет
Параметр GMC формата : Без точки перехода
Параметр матрицы формата : Default (MPEG)
Идентификатор кодека : DIVX
Идентификатор кодека/Информация : Project Mayo
Идентификатор кодека/Подсказка : DivX 4
Продолжительность : 53 м.
Битрейт : 1679 Кбит/сек
Ширина : 720 пикселей
Высота : 400 пикселей
Соотношение сторон : 16:9
Частота кадров : 25,000 кадров/сек
Цветовое пространство : YUV
Субдискретизация насыщенности : 4:2:0
Битовая глубина : 8 бит
Тип развёртки : Прогрессивная
Метод сжатия : С потерями
Бит/(Пиксели*Кадры) : 0.233
Размер потока : 644 Мбайт (92%)
Библиотека кодирования : XviD 1.2.1 (UTC 2008-12-04)
Аудио
Идентификатор : 1
Формат : MPEG Audio
Версия формата : Version 1
Профиль формата : Layer 3
Идентификатор кодека : 55
Идентификатор кодека/Подсказка : MP3
Продолжительность : 53 м.
Вид битрейта : Постоянный
Битрейт : 128 Кбит/сек
Каналы : 2 канала
Частота : 48,0 КГц
Метод сжатия : С потерями
Размер потока : 49,1 Мбайт (7%)
Выравнивание : Соединение по промежуткам
Продолжительность промежутка : 40 мс. (1,00 видеокадр)
Время предзагрузки промежутка : 504 мс.
Библиотека кодирования : LAME3.98r
Настройки программы : -m s -V 4 -q 2 -lowpass 17 -b 128

Скриншоты

-Источник:
Показать сообщения:    

Текущее время: Сегодня 01:36

Часовой пояс: GMT



Вы не можете начинать темы
Вы не можете отвечать на сообщения
Вы не можете редактировать свои сообщения
Вы не можете удалять свои сообщения
Вы не можете голосовать в опросах
Вы не можете прикреплять файлы к сообщениям
Вы не можете скачивать файлы