Важное объявление!
У Нас Все раздачи мультитрекерные, при нуле пиров в релизах, можете смело вставать на закачку!
Статистика раздачи
Размер:     |    Зарегистрирован:     |    Скачан:     |   
Нет
 
     
 
 
Автор Сообщение

HUNTER

Стаж:
5 лет
Сообщений:
68391

Репутация: 101

[+] [-]
Вне форума [Профиль] [ЛС]

Охота на роботов / Бунт роботов / Охотники на роботов / Беглец / Runaway«IT IS THE FUTURE. Machines are being programmed to turn against us.
Someone must stop the madman who started it all»
_________________________________________________________________________________________
Страна: США
Студия: TriStar Pictures, Delphi III Productions
Жанр: фантастика, триллер, боевик
Год выпуска: 1984
Продолжительность: 01:40:04
Перевод 1: Профессиональный (двухголосый закадровый) | Екатеринбург Арт
Перевод 2: Авторский (одноголосый закадровый) | А. Гаврилов
Оригинальная аудиодорожка: английский
Cубтитры: английские
Режиссер: Майкл Крайтон / Michael Crichton
В ролях: Том Селлек, Синтия Роудс, Джин Симмонс, Кёрсти Элли, Стэн Шоу, Джои Крамер, Крис Малки, Энн-Мари Мартин, Майкл Пол Чан
Описание: Недалекое будущее. Полицейский Джек Рамзи — сотрудник особого отдела по обезвреживанию поломанных или спятивших роботов. Он расследует случай странного сумасшествия робота, которое привело к гибели людей. Джек выясняет, что преступление спланировано человеком, изменившим программу робота. Но как только полицейский находит след преступников, злоумышленник похищает его десятилетнего сына и требует вернуть все попавшие в руки полиции материалы и документы о сверхновых микросхемах.
_________________________________________________________________________________________

Тип релиза: BDRip 720p ([url=viewtopic.php?t=5096366]BDRemux[/url])
Контейнер: MKV
Видео: 1280х542 at 23.976 fps, x264@L4.1, crf, ~7639 kbps avg
Аудио 1: Russian: 48 kHz, AC3, 2/0 (L,R) ch, ~192 kbps |Двухголосый закадровый, Екатеринбург Арт|
Аудио 2: Russian: 48 kHz, AC3, 2/0 (L,R) ch, ~192 kbps |Одноголосый закадровый, А. Гаврилов|
Аудио 3: English: 48 kHz, FLAC, 2/0 (L,R) ch, ~532 kbps, 16-bit
Cубтитры: English (full, SDH)

MediaInfo + x264

x264 [info]: frame I:965 Avg QP:16.13 size:116177
x264 [info]: frame P:27202 Avg QP:17.21 size: 62107
x264 [info]: frame B:115793 Avg QP:19.44 size: 33953
x264 [info]: consecutive B-frames: 1.5% 1.1% 3.7% 11.5% 16.5% 45.6% 8.9% 4.2% 3.1% 2.4% 1.4%
General
Unique ID : 196037971992969933745756601129357273142 (0x937B8A40B47E2740B68AF35A9823E836)
Complete name : D:\Runaway.1984.720p.BluRay.x264.2xRus.Eng.mkv
Format : Matroska
Format version : Version 4 / Version 2
File size : 5.98 GiB
Duration : 1h 40mn
Overall bit rate mode : Variable
Overall bit rate : 8 557 Kbps
Movie name : Охота на роботов / Runaway (1984)
Encoded date : UTC 2016-03-31 04:59:27
Writing application : mkvmerge v8.9.0 ('Father Daughter') 64bit
Writing library : libebml v1.3.3 + libmatroska v1.4.4
Cover : Yes
Attachments : cover.jpg / xlog.txt
Video
ID : 1
Format : AVC
Format/Info : Advanced Video Codec
Format profile : High@L4.1
Format settings, CABAC : Yes
Format settings, ReFrames : 12 frames
Codec ID : V_MPEG4/ISO/AVC
Duration : 1h 40mn
Bit rate : 7 639 Kbps
Width : 1 280 pixels
Height : 542 pixels
Display aspect ratio : 2.35:1
Frame rate mode : Constant
Frame rate : 23.976 (24000/1001) fps
Color space : YUV
Chroma subsampling : 4:2:0
Bit depth : 8 bits
Scan type : Progressive
Bits/(Pixel*Frame) : 0.459
Stream size : 5.34 GiB (89%)
Title : Охота на роботов / Runaway (1984) BDRip 720p by Kasparas
Writing library : x264 core 148 r2665kMod a01e339
Encoding settings : cabac=1 / ref=12 / deblock=1:-3:-3 / analyse=0x3:0x133 / me=umh / subme=10 / psy=1 / fade_compensate=0.00 / psy_rd=1.00:0.00 / mixed_ref=1 / me_range=32 / chroma_me=1 / trellis=2 / 8x8dct=1 / cqm=0 / deadzone=21,11 / fast_pskip=0 / chroma_qp_offset=-2 / threads=6 / lookahead_threads=1 / sliced_threads=0 / nr=0 / decimate=0 / interlaced=0 / bluray_compat=0 / constrained_intra=0 / fgo=0 / bframes=10 / b_pyramid=2 / b_adapt=2 / b_bias=0 / direct=3 / weightb=1 / open_gop=0 / weightp=2 / keyint=250 / keyint_min=23 / scenecut=40 / intra_refresh=0 / rc_lookahead=60 / rc=crf / mbtree=0 / crf=17.5000 / qcomp=0.60 / qpmin=0 / qpmax=69 / qpstep=4 / vbv_maxrate=62500 / vbv_bufsize=78125 / crf_max=0.0 / nal_hrd=none / filler=0 / ip_ratio=1.40 / pb_ratio=1.30 / aq=3:0.80
Language : English
Default : Yes
Forced : No
Audio #1
ID : 2
Format : AC-3
Format/Info : Audio Coding 3
Mode extension : CM (complete main)
Format settings, Endianness : Big
Codec ID : A_AC3
Duration : 1h 40mn
Bit rate mode : Constant
Bit rate : 192 Kbps
Channel(s) : 2 channels
Channel positions : Front: L R
Sampling rate : 48.0 KHz
Frame rate : 31.250 fps (1536 spf)
Compression mode : Lossy
Stream size : 137 MiB (2%)
Title : Двухголосый, Екатеринбург Арт
Language : Russian
Default : Yes
Forced : No
Audio #2
ID : 3
Format : AC-3
Format/Info : Audio Coding 3
Format profile : Dolby Digital
Mode extension : CM (complete main)
Format settings, Endianness : Big
Codec ID : A_AC3
Duration : 1h 40mn
Bit rate mode : Constant
Bit rate : 192 Kbps
Channel(s) : 2 channels
Channel positions : Front: L R
Sampling rate : 48.0 KHz
Frame rate : 31.250 fps (1536 spf)
Compression mode : Lossy
Stream size : 137 MiB (2%)
Title : Одноголосый, А. Гаврилов
Language : Russian
Default : No
Forced : No
Audio #3
ID : 4
Format : FLAC
Format/Info : Free Lossless Audio Codec
Codec ID : A_FLAC
Duration : 1h 40mn
Bit rate mode : Variable
Bit rate : 532 Kbps
Channel(s) : 2 channels
Channel positions : Front: L R
Sampling rate : 48.0 KHz
Frame rate : 11.719 fps (4096 spf)
Bit depth : 16 bits
Stream size : 381 MiB (6%)
Writing library : libFLAC 1.3.1 (UTC 2014-11-25)
Language : English
Default : No
Forced : No
Text #1
ID : 5
Format : UTF-8
Codec ID : S_TEXT/UTF8
Codec ID/Info : UTF-8 Plain Text
Duration : 1h 34mn
Bit rate : 52 bps
Count of elements : 1170
Stream size : 36.4 KiB (0%)
Language : English
Default : No
Forced : No
Text #2
ID : 6
Format : UTF-8
Codec ID : S_TEXT/UTF8
Codec ID/Info : UTF-8 Plain Text
Duration : 1h 36mn
Bit rate : 65 bps
Count of elements : 1547
Stream size : 46.5 KiB (0%)
Title : SDH
Language : English
Default : No
Forced : No
Menu
00:00:00.000 : en:00:00:00.000
00:02:04.332 : en:00:02:04.332
00:08:46.943 : en:00:08:46.943
00:25:12.177 : en:00:25:12.177
00:32:28.279 : en:00:32:28.279
00:38:28.639 : en:00:38:28.639
00:43:18.137 : en:00:43:18.137
00:54:22.259 : en:00:54:22.259
01:04:36.789 : en:01:04:36.789
01:11:58.230 : en:01:11:58.230
01:22:03.919 : en:01:22:03.919

Знаете ли вы, что...

  • На протяжении фильма имя героя Тома Селлека Рамзи произносится примерно 52 раза, то есть почти каждые две минуты.
  • Джин Симмонс, один из основателей рок-группы «Кисс», пишет в своей книге, что получил роль злодея Лютера, после того как смог не выражая никаких эмоций, в течении минуты смотреть на режиссёра Майкла Крайтона.
  • Когда Рамзи входит в дом, чтобы спасти младенца от робота-убийцы, он наступает на небольшой куст, который оказывается всего лишь муляжом. А в следующей же сцене некоторые зрители обращают внимание на другого рода возможный ляп: хотя робот вооружён револьвером, перед выстрелами можно расслышать звук, напоминающий перезарядку помпового ружья.
  • Английское название фильма — «Runaway» (по-русски «беглец»). Так в фильме на полицейском жаргоне называют вышедших из-под контроля роботов.
  • Фильм снимался в городке Мозес Лейк в штате Вашингтон.

_________________
Показать сообщения:    

Текущее время: Сегодня 01:53

Часовой пояс: GMT



Вы не можете начинать темы
Вы не можете отвечать на сообщения
Вы не можете редактировать свои сообщения
Вы не можете удалять свои сообщения
Вы не можете голосовать в опросах
Вы не можете прикреплять файлы к сообщениям
Вы не можете скачивать файлы