Ивановский Торрент трекер
Яндекс.Погода
 

[Цитировать]
HUNTER

Охота на гауляйтера Год выпуска: 2012
Производство: Беларусьфильм, Star Media
Страна: Россия
Жанр: военная драма
Продолжительность: 00:50:27
Перевод: Оригинал
Субтиры: Нет
Режиссёр: Олег Базилов
В ролях: Анастасия Заворотнюк, Мария Машкова, Людмила Чурсина, Лариса Лужина, Александр Дьяченко, Александр Кашперов (II), Павел Трубинер, Сергей Юшкевич, Ирина Бякова, Андрей Межулис, Уве Йеллинек, Урсула Готтвальд, Кристина Кляйн, Андрей Сенькин (II), Сергей Белякович (II), Дарья Баранова, Дирк Мартенс, Нильс Нелессен, Николай Зимич, Елена Дубровская, Андрей Попков, Марина Денисова, Антон Белько
Описание: Минск. 1970 год. На торжественном заседании, посвященном награждению комсомольцев орденом Ленина, неожиданно для всех прямо на сцене друг на друга яростно набрасываются две почетные гостьи Галина Помазан и Мария Архипова. В годы войны они обе были партизанками и получили звание героя Советского Союза за операцию по ликвидации гауляйтера Белоруссии Вильгельма Кубэ. За сухими строчками официальной версии ликвидации гауляйтера стоят судьбы двух совершенно
разных женщин, чьи жизни навсегда изменила война. В сюжете многосерийного фильма «Охота на гауляйтера» переплетены исторический роман, военно-психологическая драма и любовные линии на фоне борьбы партизанского подполья с фашистской оккупацией Белоруссии.
Сэмпл: http://multi-up.com/786503
Качество: SATRip
Формат: AVI
Видео кодек: XviD
Аудио кодек: MP3
Видео: 704x368 (1.91:1), 25 fps, XviD build 50 ~1697 kbps avg, 0.26 bit/pixel
Аудио: 48 kHz, MPEG Layer 3, 2 ch, ~192.00 kbps avg

MediaInfo

Общее
Полное имя : D:\Ohota.na.gauljitera.2012.SATRip\Ohota.na.gauljitera.01.2012.SATRip.avi
Формат : AVI
Формат/Информация : Audio Video Interleave
Размер файла : 697 Мбайт
Продолжительность : 50 м.
Общий поток : 1919 Кбит/сек
Программа кодирования : VirtualDubMod 1.5.10.3 | (build 2550/release)
Библиотека кодирования : VirtualDub build 29808/release
Видео
Идентификатор : 0
Формат : MPEG-4 Visual
Профиль формата : Advanced Simple@L5
Параметр BVOP формата : 1
Параметр QPel формата : Нет
Параметр GMC формата : Без точки перехода
Параметр матрицы формата : Default (H.263)
Идентификатор кодека : XVID
Идентификатор кодека/Подсказка : XviD
Продолжительность : 50 м.
Битрейт : 1717 Кбит/сек
Ширина : 704 пикселя
Высота : 368 пикселей
Соотношение сторон : 1,913
Частота кадров : 25,000 кадров/сек
Цветовое пространство : YUV
Субдискретизация насыщенности : 4:2:0
Битовая глубина : 8 бит
Тип развёртки : Прогрессивная
Метод сжатия : С потерями
Бит/(Пиксели*Кадры) : 0.265
Размер потока : 624 Мбайт (89%)
Библиотека кодирования : XviD 1.2.1 (UTC 2008-12-04)
Аудио
Идентификатор : 1
Формат : MPEG Audio
Версия формата : Version 1
Профиль формата : Layer 3
Режим : Joint stereo
Расширение режима : MS Stereo
Идентификатор кодека : 55
Идентификатор кодека/Подсказка : MP3
Продолжительность : 50 м.
Вид битрейта : Постоянный
Битрейт : 192 Кбит/сек
Каналы : 2 канала
Частота : 48,0 КГц
Метод сжатия : С потерями
Размер потока : 69,7 Мбайт (10%)
Выравнивание : Соединение по промежуткам
Продолжительность промежутка : 40 мс. (1,00 видеокадр)
Время предзагрузки промежутка : 504 мс.
Библиотека кодирования : LAME3.98r
Настройки программы : -m j -V 4 -q 2 -lowpass 18.6 -b 192

Скриншоты



Показать сообщения:    

Текущее время: 15-Дек 21:55

Часовой пояс: UTC ± 0


Вы не можете начинать темы
Вы не можете отвечать на сообщения
Вы не можете редактировать свои сообщения
Вы не можете удалять свои сообщения
Вы не можете голосовать в опросах
Вы не можете прикреплять файлы к сообщениям
Вы не можете скачивать файлы

!ВНИМАНИЕ!
Сайт не предоставляет электронные версии произведений, а занимается лишь коллекционированием и каталогизацией ссылок, присылаемых и публикуемых на форуме нашими читателями. Если вы являетесь правообладателем какого-либо представленного материала и не желаете, чтобы ссылка на него находилась в нашем каталоге, свяжитесь с нами, и мы незамедлительно удалим ее. Файлы для обмена на трекере предоставлены пользователями сайта, и администрация не несет ответственности за их содержание. Просьба не заливать файлы, защищенные авторскими правами, а также файлы нелегального содержания!