Ивановский Торрент трекер
Яндекс.Погода
 

[Цитировать]
HUNTER

От колыбели до могилы / Cradle 2 the Grave-
Год выпуска: 2003
Выпущено: США / Silver Pictures
Жанр: боевик, триллер, драма, криминал
Продолжительность: 01:41:12
Перевод 1: Авторский (одногоголосый закадровый)[А. Гаврилов]
Перевод 2: Авторский (одногоголосый закадровый)[Ю. Живов]
Cубтитры: нет-Режиссер: Анджей Бартковяк / Andrzej Bartkowiak-В ролях: Джет Ли, DMX, Энтони Андерсон, Келли Ху, Том Арнольд, Марк Дакаскос, Гэбриэлль Юнион, Майкл Джейс, Дрэг-Он, Пэйдж Херд, Паоло Сегэнти, Ричард Трэпп, Рон Йуан, Вун Янг Парк, Джонни Нгуйен-Описание: Профессиональный грабитель и секретный агент объединяют свои усилия в борьбе против банды свирепых гангстеров под руководством жестокого мафиози… В центре сюжета — бесценные сокровища — черные алмазы из Тайваня. Сначала их похищает банда чернокожего вора Тони Фейта. Но драгоценности приносят ему лишь неприятности: хозяин камешков, торговец оружием Линг, похищает дочь Фейта и требует вернуть бриллианты.
Только возвращать уже нечего: камни снова украдены, на этот раз бандой местного мафиози Джамба Чемберса. Чтобы вернуть дочь и уцелеть самому, Фейт вынужден объединиться с агентом тайваньской разведки Су, который тоже идет по следу бриллиантов. Дело в том, что черные алмазы — совсем не ювелирные драгоценности…
--Качество: BDRip
Формат: AVI
Видео: 720x304 (2.37:1), 23.976 fps, XviD build 65 ~1665 kbps avg, 0.32 bit/pixel
Аудио 1: 48 kHz, AC3 Dolby Digital, 3/2 (L,C,R,l,r) + LFE ch, ~448.00 kbps avg [А. Гаврилов]
Аудио 2: 48 kHz, AC3 Dolby Digital, 3/2 (L,C,R,l,r) + LFE ch, ~448.00 kbps avg [Ю. Живов]-

Рейтинги:

IMDB | КиноПоиск |

О релизе

Видеоряд от dalemake, дорожки взяты из раздачи Рудольфо321,за что им спасибо.
Сборка моя

MI

E:\INTERNET\От колыбели до могилы_2003_BDRip.2AVO.avi
General
Complete name : E:\INTERNET\От колыбели до могилы_2003_BDRip.2AVO.avi
Format : AVI
Format/Info : Audio Video Interleave
File size : 1.82 GiB
Duration : 1h 41mn
Overall bit rate : 2 576 Kbps
Writing application : VirtualDubMod 1.5.10.3 (build 2550/release)
Writing library : VirtualDubMod build 2550/release
Video #0
ID : 0
Format : MPEG-4 Visual
Format profile : Advanced Simple@L5
Format settings, BVOP : 1
Format settings, QPel : No
Format settings, GMC : No warppoints
Format settings, Matrix : Custom
Codec ID : XVID
Codec ID/Hint : XviD
Duration : 1h 41mn
Bit rate : 1 666 Kbps
Width : 720 pixels
Height : 304 pixels
Display aspect ratio : 2.35:1
Frame rate : 23.976 fps
Color space : YUV
Chroma subsampling : 4:2:0
Bit depth : 8 bits
Scan type : Progressive
Compression mode : Lossy
Bits/(Pixel*Frame) : 0.317
Stream size : 1.18 GiB (65%)
Writing library : XviD 65
Audio #1
ID : 1
Format : AC-3
Format/Info : Audio Coding 3
Mode extension : CM (complete main)
Format settings, Endianness : Big
Codec ID : 2000
Duration : 1h 41mn
Bit rate mode : Constant
Bit rate : 448 Kbps
Channel(s) : 6 channels
Channel positions : Front: L C R, Side: L R, LFE
Sampling rate : 48.0 KHz
Bit depth : 16 bits
Compression mode : Lossy
Stream size : 324 MiB (17%)
Alignment : Split accross interleaves
Interleave, duration : 42 ms (1.00 video frame)
Interleave, preload duration : 500 ms
Audio #2
ID : 2
Format : AC-3
Format/Info : Audio Coding 3
Mode extension : CM (complete main)
Format settings, Endianness : Big
Codec ID : 2000
Duration : 1h 41mn
Bit rate mode : Constant
Bit rate : 448 Kbps
Channel(s) : 6 channels
Channel positions : Front: L C R, Side: L R, LFE
Sampling rate : 48.0 KHz
Bit depth : 16 bits
Compression mode : Lossy
Stream size : 324 MiB (17%)
Alignment : Split accross interleaves
Interleave, duration : 42 ms (1.00 video frame)
Interleave, preload duration : 500 ms

Скриншоты

Показать сообщения:    

Текущее время: 18-Окт 12:06

Часовой пояс: UTC - 1


Вы не можете начинать темы
Вы не можете отвечать на сообщения
Вы не можете редактировать свои сообщения
Вы не можете удалять свои сообщения
Вы не можете голосовать в опросах
Вы не можете прикреплять файлы к сообщениям
Вы не можете скачивать файлы

!ВНИМАНИЕ!
Сайт не предоставляет электронные версии произведений, а занимается лишь коллекционированием и каталогизацией ссылок, присылаемых и публикуемых на форуме нашими читателями. Если вы являетесь правообладателем какого-либо представленного материала и не желаете, чтобы ссылка на него находилась в нашем каталоге, свяжитесь с нами, и мы незамедлительно удалим ее. Файлы для обмена на трекере предоставлены пользователями сайта, и администрация не несет ответственности за их содержание. Просьба не заливать файлы, защищенные авторскими правами, а также файлы нелегального содержания!