Ивановский Торрент трекер
Яндекс.Погода
 

[Цитировать]
HUNTER

От идеи до миллиона -
Год выпуска: 2012
Страна: Россия
Сайт производителя: http://www.internbiz.ru/
Тематика: Заработок в интернете
Тип материала: Мультимедийный диск-Продолжительность: 03:29:19
Автор: Айрат Гайнутдинов-Язык: Русский
Субтитры: Отсутствуют-Системные требования: PC, Windows® XP, Vista SP2 | Windows® 7 SP1-Описание: Все тонкости создания и продажи своего инфопродукта от А до Я-Качество: HDRip
Формат: wmv
Видео кодек: WMV3
Аудио кодек: WMA
Видео: Windows Media Video 9 1280x720 10fps 250kbps
Аудио: WMA 2 44100Hz mono 32kbps-

Содержание

Выбор Вашей ниши
Планирование будущего курса
Запись видео уроков с экрана компьютера и с видеокамеры
Редактирование и правка видео в программе Camtasia Studio
Создание с нуля Autorun меню в программе Auto play MS
Регистрация и настройка почтовой рассылки SmartResponder
Создание рассылки в SmartResponder
Универсальный метод написания писем на любую тему, справится даже "чайник"
Добавление и автоматизация доставки писем в SmartResponder
Создание страницы подписки
Работа в программе Dreamweaver
Работа в программе Microsoft Office FrontPage
Создание страницы продажи инфопродукта
Работа в программе Photoshop
Настройка и установка всплывающего (Pop-up) окна на страницу продажи
Создание, редактирование коробки диска для любого продукта
Регистрация хостинга и домена для нашего сайта
Создание и установка счетчика посетителей на сайт
Регистрация и настройка аккаунта в сервисе приема платежей e-autopay
Настройка партнерской программы в e-autopay
Добавление и настройка своего товара в e-autopay
Работа с FTP
Трафик
Виды трафика
Настраиваем поток покупателей нашего продукта, практические действия
Бонусный видеоурок

MediaInfo

Код: copyText_writeLink('this.parentNode.parentNode.nextSibling.nextSibling'); General
Complete name : E:\Обучение\ot_idei_do_milliona\AutoPlay\Videos\2_Nisha.wmv
Format : Windows Media
File size : 3.46 MiB
Duration : 3mn 14s
Overall bit rate mode : Constant
Overall bit rate : 149 Kbps
Maximum Overall bit rate : 296 Kbps
Movie name : 2_Nisha
Encoded date : UTC 2012-09-16 10:00:21.375
Video
ID : 2
Format : VC-1
Format profile : MP@HL
Codec ID : WMV3
Codec ID/Info : Windows Media Video 9
Codec ID/Hint : WMV3
Description of the codec : Windows Media Video 9
Duration : 3mn 14s
Bit rate mode : Constant
Bit rate : 250 Kbps
Width : 1 280 pixels
Height : 720 pixels
Display aspect ratio : 16:9
Frame rate : 10.000 fps
Bit depth : 8 bits
Scan type : Progressive
Compression mode : Lossy
Bits/(Pixel*Frame) : 0.027
Stream size : 5.80 MiB
Language : English (US)
Audio
ID : 1
Format : WMA
Format version : Version 2
Codec ID : 161
Codec ID/Info : Windows Media Audio
Description of the codec : Windows Media Audio 9.2 - 32 kbps, 44 kHz, mono (A/V) 1-pass CBR
Duration : 3mn 14s
Bit rate mode : Constant
Bit rate : 32.0 Kbps
Channel(s) : 1 channel
Sampling rate : 44.1 KHz
Bit depth : 16 bits
Stream size : 761 KiB (21%)
Language : English (US)
- -


Показать сообщения:    

Текущее время: 11-Дек 04:15

Часовой пояс: UTC ± 0


Вы не можете начинать темы
Вы не можете отвечать на сообщения
Вы не можете редактировать свои сообщения
Вы не можете удалять свои сообщения
Вы не можете голосовать в опросах
Вы не можете прикреплять файлы к сообщениям
Вы не можете скачивать файлы

!ВНИМАНИЕ!
Сайт не предоставляет электронные версии произведений, а занимается лишь коллекционированием и каталогизацией ссылок, присылаемых и публикуемых на форуме нашими читателями. Если вы являетесь правообладателем какого-либо представленного материала и не желаете, чтобы ссылка на него находилась в нашем каталоге, свяжитесь с нами, и мы незамедлительно удалим ее. Файлы для обмена на трекере предоставлены пользователями сайта, и администрация не несет ответственности за их содержание. Просьба не заливать файлы, защищенные авторскими правами, а также файлы нелегального содержания!