Ивановский Торрент трекер
Яндекс.Погода
 

[Цитировать]
HUNTER

От Заката До Рассвета 2 : "Кровавые Деньги Техаса" / From Dusk Till Dawn 2: Texas Blood Money
Страна: США
Студия: Silver Screen Partners IV, Touchstone Pictures
Жанр: ужасы, фэнтези, триллер, комедия, криминал
Год выпуска: 1998
Продолжительность: 01:28:01
Перевод 1: Профессиональный (многоголосый закадровый)
Перевод 2: Авторский (одноголосый закадровый)
Перевод 3: Авторский (одноголосый закадровый)
Перевод 4: Профессиональный (многоголосый закадровый)
Перевод 5: Авторский (одноголосый закадровый)
Cубтитры: английские, русские
Оригинальная аудиодорожка: английский
Режиссер:
Скотт Спигел / Scott Spiegel
В ролях:
Роберт Патрик, Бо Хопкинс, Дуан Уайтакер, Мьюз Уотсон, Бретт Харрельсон, Рэймонд Крус, Дэнни Трехо, Джеймс Паркс, Стэйси Буржуа, Мария Чека, Тиффани Тиссен, Брюс Кэмпбелл, Терри Нортон, Лара Бай, Джо Вирзи, Кевин Смит, Скотт Спигел, Скотт Роджерс, Джеймс Райан, Шон Арнольд
Описание:
Пятеро крутых парней решают ограбить банк в Мексике. Они еще не сдвинулись с места, а полиция уже сидела на хвосте, разыскивая только что сбежавшего из-под стражи их сообщника Лютера. С ним Бак назначил встречу в пути. Все едва не сорвалось, когда ночью в дороге, неподалеку от бара «Крученые сиськи», у Лютера ломается машина…
Доп. информация:
Видео, английская и русская R5 звуковые дорожки были взяты с BDRip скачанный у соседей. Звуковые дорожки с переводами Живова, Гаврилова и субтитры были взяты отсюда - спасибо intellect. Звуковые дорожки с Дольским и РТР отсюда - спасибо Slim9174. Меню и главы взял с DVD5 - спасибо PITBUL[LV]. Меню отредактировано под данный релиз в фотошопе. Главы расставлены как на DVD5. Видео сжато Rhozet Carbon Coder в VBR 5200 в два прохода, по инструкции за которую спасибо Mikky72. Диск собран полностью с помощью DVD-lab PRO 2.
Меню:
Есть, статичное и озвученное. Язык русский.
Сэмпл
Тип релиза: BDRip-DVD5 (Custom)
Контейнер: DVD-Video
Видео: NTSC 16:9 (720x480) VBR, Auto Letterboxed
Аудио 1: Russian AC3/ 5.1 / 48 kHz/ 384 kbps, Многоголосый, R5
Аудио 2: English AC3/ 5.1 / 48 kHz/ 384 kbps, Оригинал
Аудио 3: Russian AC3/ 5.1 / 48 kHz/ 384 kbps, Ю. Живов
Аудио 4: Russian AC3/ 2.0 / 48 kHz/ 192 kbps, А. Гаврилов
Аудио 5: Russian AC3/ 2.0 / 48 kHz/ 192 kbps, Многоголосый , «РТР»
Аудио 6: Russian AC3/ 2.0 / 48 kHz/ 192 kbps, А. Дольский
Формат субтитров: prerendered (DVD/IDX+SUB)Релиз группа

Информация по сборке релиза

Используемый софт

MKVExtractGUI2 - разборка BDRip
Carbon Coder - конвертация видео
Adobe Photoshop CS6 / DVDSubEdit - работа с меню
DVD-lab PRO 2 - сборка DVD

MediaInfo BDrip

Общее
Уникальный идентификатор : 177752153909230016886087736845932362796 (0x85B9D1D09AE8F02DA3D4F0883B9AFC2C)
Полное имя : I:\Downloads\Ot.zakata.do.rassveta.2.1999.x264.BDRip.1080p.mkv
Формат : Matroska
Версия формата : Version 1
Размер файла : 6,56 Гбайт
Продолжительность : 1 ч. 28 м.
Общий поток : 10,7 Мбит/сек
Название фильма : От заката до рассвета 2: Кровавые деньги из Техаса / From Dusk Till Dawn 2: Texas Blood Money (1999) BDRip 1080p - firebit.org
Дата кодирования : UTC 2011-12-22 00:12:54
Программа кодирования : mkvmerge v2.3.0 ('Freak U') built on Sep 8 2008 18:32:16
Библиотека кодирования : libebml v0.7.7 + libmatroska v0.8.1
Видео
Идентификатор : 1
Формат : AVC
Формат/Информация : Advanced Video Codec
Профиль формата : High@L4.1
Параметр CABAC формата : Да
Параметр ReFrames формата : 4 кадра
Идентификатор кодека : V_MPEG4/ISO/AVC
Продолжительность : 1 ч. 28 м.
Битрейт : 9888 Кбит/сек
Ширина : 1920 пикселей
Высота : 1080 пикселей
Соотношение сторон : 16:9
Режим частоты кадров : Постоянный
Частота кадров : 23,976 кадра/сек
Цветовое пространство : YUV
Субдискретизация насыщенности : 4:2:0
Битовая глубина : 8 бит
Тип развёртки : Прогрессивная
Бит/(Пиксели*Кадры) : 0.199
Размер потока : 5,95 Гбайт (91%)
Заголовок : http://firebit.org
Библиотека кодирования : x264 core 120 r2120 0c7dab9
Настройки программы : cabac=1 / ref=4 / deblock=1:0:0 / analyse=0x3:0x133 / me=umh / subme=8 / psy=1 / psy_rd=1.00:0.00 / mixed_ref=1 / me_range=16 / chroma_me=1 / trellis=1 / 8x8dct=1 / cqm=0 / deadzone=21,11 / fast_pskip=0 / chroma_qp_offset=-2 / threads=18 / sliced_threads=0 / nr=0 / decimate=1 / interlaced=0 / bluray_compat=0 / constrained_intra=0 / bframes=3 / b_pyramid=2 / b_adapt=1 / b_bias=0 / direct=1 / weightb=1 / open_gop=0 / weightp=2 / keyint=250 / keyint_min=23 / scenecut=40 / intra_refresh=0 / rc_lookahead=40 / rc=2pass / mbtree=1 / bitrate=9888 / ratetol=1.0 / qcomp=0.60 / qpmin=0 / qpmax=69 / qpstep=4 / cplxblur=20.0 / qblur=0.5 / ip_ratio=1.40 / aq=1:1.00
Язык : English
Default : Да
Forced : Нет
Аудио #1
Идентификатор : 2
Формат : AC-3
Формат/Информация : Audio Coding 3
Расширение режима : CM (complete main)
Параметр Endianness формата : Big
Идентификатор кодека : A_AC3
Продолжительность : 1 ч. 28 м.
Вид битрейта : Постоянный
Битрейт : 384 Кбит/сек
Каналы : 6 каналов
Расположение каналов : Front: L C R, Side: L R, LFE
Частота : 48,0 КГц
Битовая глубина : 16 бит
Метод сжатия : С потерями
Размер потока : 242 Мбайт (4%)
Заголовок : http://firebit.org
Язык : Russian
Default : Да
Forced : Нет
Аудио #2
Идентификатор : 3
Формат : AC-3
Формат/Информация : Audio Coding 3
Расширение режима : CM (complete main)
Параметр Endianness формата : Big
Идентификатор кодека : A_AC3
Продолжительность : 1 ч. 28 м.
Вид битрейта : Постоянный
Битрейт : 384 Кбит/сек
Каналы : 6 каналов
Расположение каналов : Front: L C R, Side: L R, LFE
Частота : 48,0 КГц
Битовая глубина : 16 бит
Метод сжатия : С потерями
Размер потока : 242 Мбайт (4%)
Заголовок : http://firebit.org
Язык : English
Default : Нет
Forced : Нет
Текст #1
Идентификатор : 4
Формат : UTF-8
Идентификатор кодека : S_TEXT/UTF8
Идентификатор кодека/Информация : UTF-8 Plain Text
Заголовок : http://firebit.org
Язык : English
Default : Да
Forced : Нет
Текст #2
Идентификатор : 5
Формат : UTF-8
Идентификатор кодека : S_TEXT/UTF8
Идентификатор кодека/Информация : UTF-8 Plain Text
Заголовок : http://firebit.org
Язык : Russian
Default : Нет
Forced : Нет
Текст #3
Идентификатор : 6
Формат : UTF-8
Идентификатор кодека : S_TEXT/UTF8
Идентификатор кодека/Информация : UTF-8 Plain Text
Заголовок : http://firebit.org
Язык : English
Default : Нет
Forced : Нет

DVDInfo

Title: From Dusk Till Dawn 2_1998
Size: 4.36 Gb ( 4 567 202,00 KBytes ) - DVD-5
Enabled regions: 1, 2, 3, 4, 5, 6, 7, 8
VTS_01 :
Play Length: 01:28:01
Video: NTSC 16:9 (720x480) VBR, Auto Letterboxed
Audio:
Russian (Dolby AC3, 6 ch)
English (Dolby AC3, 6 ch)
Russian (Dolby AC3, 6 ch)
Russian (Dolby AC3, 2 ch)
Russian (Dolby AC3, 2 ch)
Russian (Dolby AC3, 2 ch)
Subtitles:
Russian
English

Скрипт

LoadPlugin("C:\Program Files (x86)\FFmpegSource2\ffms2.dll") #подключение декодера
FFVideoSource("D:\Video\Ot zakata.mkv") #открытие видео
LoadPlugin("C:\Program Files (x86)\AutoYUY2\AutoYUY2.dll") #подключение плагина
AutoYUY2() #конверсия цветового пространства
LoadPlugin("C:\Program Files (x86)\ColorMatrix\ColorMatrix.dll") #подключение плагина
ColorMatrix(mode="Rec.709->Rec.601", inputFR=false, clamp=0) #16-235
AssumeFPS("ntsc_film")
BicubicResize(720, 480, 0, 0.5) #ресайз методом Catmull-Rom spline
#AddBorders (0,0,0,0) #bbb=00

Скриншоты меню

Скриншоты

Проверено на софтовом CyberLink PowerDVD и железном плейере BBK.
Раздавать буду с 9.00 до 23.00 до первых пяти скачавших.
Потом по возможности.

Просьба к скачавшим - не уходите сразу после скачивания с раздачи!!!
Показать сообщения:    

Текущее время: 24-Окт 03:04

Часовой пояс: UTC - 1


Вы не можете начинать темы
Вы не можете отвечать на сообщения
Вы не можете редактировать свои сообщения
Вы не можете удалять свои сообщения
Вы не можете голосовать в опросах
Вы не можете прикреплять файлы к сообщениям
Вы не можете скачивать файлы

!ВНИМАНИЕ!
Сайт не предоставляет электронные версии произведений, а занимается лишь коллекционированием и каталогизацией ссылок, присылаемых и публикуемых на форуме нашими читателями. Если вы являетесь правообладателем какого-либо представленного материала и не желаете, чтобы ссылка на него находилась в нашем каталоге, свяжитесь с нами, и мы незамедлительно удалим ее. Файлы для обмена на трекере предоставлены пользователями сайта, и администрация не несет ответственности за их содержание. Просьба не заливать файлы, защищенные авторскими правами, а также файлы нелегального содержания!