Ивановский Торрент трекер
Яндекс.Погода
 

[Цитировать]
HUNTER

От Дня-Д до Берлина (3 серии из 3) / D-Day to Berlin
Год выпуска: 2004
Страна: Великобритания, ВВС
Жанр: Документальный, ВОВ, история, реконструкция, кинохроника
Продолжительность: 3 х ~ 00:51:14
Перевод: Отсутствует
Русские субтитры: есть
Режиссер: Мартина Халл
Описание: Это история о храбрости, мужестве и самопожертвовании. Общими военными усилиями союзников, от Дня-Д в июне 1944 года, до последнего штурма Германии в 1945 году, была осуществлена одна из крупнейших военных наступательных операций в истории войн. Она потребовала много жертв. Эта кампания по освобождению от нацистов, должна была сформировать будущее послевоенной Европы. Архивные кадры показывают жестокие сражения, в то время как британские, американские и немецкие солдаты рассказывают истории о мужестве и храбрости по обеим сторонам Западного фронта.
Доп. информация: Авторство релиза - alf62. Автор субтитров: Grizzle.
Субтитры в виде отдельных файлов в форматах *.srt и *.ass
Сэмпл: http://multi-up.com/864519
качество: DVDRip
формат: AVI
видеокодек: DivX
аудиокодек: MP3
Видео: 608x336 (1.81:1), 29.970 fps, DivX Codec 5.x or 6.x ~1845 kbps avg, 0.30 bit/pixel
Аудио: MP3, 128 kb/s (64/ch, stereo) CBR, 48000 Hz

Список выпусков/серий

Фильм 1: Битва разворачивается / The Struggle To Break Out.
После того, как союзники в День-Д захватили плацдармы в Нормандии, многие думали, что к Рождеству будут в Берлине. Однако дальше последовала смертельная борьба среди живых изгородей в Нормандии, веселье при освобождении Парижа, трагедия неудачной операции «Маркет Гарден» и паника, когда вермахт нанес удар союзникам в кровавом наступлении «Битвы за Выступ».
Фильм 2: Союзники в войне / Allies At War.
Наконец, огромной ценой, путь был расчищен. При продвижении армий союзников вглубь Германии, они столкнулись с самой страшной тайной нацистов – концентрационными лагерями. С самоубийством Гитлера, в дом союзников пришла радостная весть – война в Европе закончилась.
Фильм 3: Мечта, которая умерла / The Dream That Dies.
Эмоциональные воспоминания британских, американских и немецких солдат, архивные съемки, позволяют представить те жестокие сражения. В этой серии показана вся история одного из крупнейших наступлений.
Это история о храбрости, мужестве и самопожертвовании. Общими военными усилиями союзников, от Дня-Д в июне 1944 года, до последнего штурма Германии в 1945 году, была осуществлена одна из крупнейших военных наступательных операций в истории войн. Она потребовала много жертв. Эта кампания по освобождению от нацистов, должна была сформировать будущее послевоенной Европы.
Архивные кадры показывают жестокие сражения, в то время как британские, американские и немецкие солдаты рассказывают истории о мужестве и храбрости по обе стороны Западного фронта.

MediaInfo

General
Complete name : E:\Торенты\Rutracker.org\BBC D-Day To Berlin\Ot.Dnja.D.do.Berlina.(3.serii.iz3).2004..DVDRip.alf62.Grizzle\Ot.Dnja.D.do.Berlina.(1.serija.iz3).Bitva.razvorachivaetsja.2004.DivX.DVDRip.alf62.Grizzle.avi
Format : AVI
Format/Info : Audio Video Interleave
File size : 729 MiB
Duration : 51mn 14s
Overall bit rate : 1 988 Kbps
Writing application : MEncoder 1.0rc2-4.2.4
Writing library : MPlayer
Video
ID : 0
Format : MPEG-4 Visual
Format profile : Simple@L1
Format settings, BVOP : No
Format settings, QPel : No
Format settings, GMC : No warppoints
Format settings, Matrix : Default (H.263)
Codec ID : DX50
Codec ID/Hint : DivX 5
Duration : 51mn 14s
Bit rate : 1 846 Kbps
Width : 608 pixels
Height : 336 pixels
Display aspect ratio : 16:9
Frame rate : 29.970 fps
Color space : YUV
Chroma subsampling : 4:2:0
Bit depth : 8 bits
Scan type : Progressive
Compression mode : Lossy
Bits/(Pixel*Frame) : 0.301
Stream size : 677 MiB (93%)
Writing library : Lavc51.44.0
Audio
ID : 1
Format : MPEG Audio
Format version : Version 1
Format profile : Layer 3
Codec ID : 55
Codec ID/Hint : MP3
Duration : 51mn 14s
Bit rate mode : Constant
Bit rate : 128 Kbps
Channel(s) : 2 channels
Sampling rate : 48.0 KHz
Compression mode : Lossy
Stream size : 46.9 MiB (6%)
Alignment : Aligned on interleaves
Interleave, duration : 24 ms (0.72 video frame)
Interleave, preload duration : 504 ms
Writing library : LAME3.98
Показать сообщения:    

Текущее время: 23-Окт 18:00

Часовой пояс: UTC - 1


Вы не можете начинать темы
Вы не можете отвечать на сообщения
Вы не можете редактировать свои сообщения
Вы не можете удалять свои сообщения
Вы не можете голосовать в опросах
Вы не можете прикреплять файлы к сообщениям
Вы не можете скачивать файлы

!ВНИМАНИЕ!
Сайт не предоставляет электронные версии произведений, а занимается лишь коллекционированием и каталогизацией ссылок, присылаемых и публикуемых на форуме нашими читателями. Если вы являетесь правообладателем какого-либо представленного материала и не желаете, чтобы ссылка на него находилась в нашем каталоге, свяжитесь с нами, и мы незамедлительно удалим ее. Файлы для обмена на трекере предоставлены пользователями сайта, и администрация не несет ответственности за их содержание. Просьба не заливать файлы, защищенные авторскими правами, а также файлы нелегального содержания!