Ивановский Торрент трекер
Яндекс.Погода
 

[Цитировать]
HUNTER

Отчаянный побег / Desperate Escape Страна: Канада
Жанр: драма, криминал, детектив
Год выпуска: 2009
Продолжительность: 01:25:43
Перевод: Профессиональный (многоголосый закадровый)
Cубтитры: нет
Режиссер: Джордж Менделюк / George Mendeluk
В ролях: Элизабет Рём, Майкл Шэнкс, Майкл Райан, Серинда Свон, Донна Ямамото, Франсуаза Робертсон, Уильям МакДональд, Майкл Райан, Тамми Хуи, Майкл Йонсон
Описание: Брук Харрис приходит в себя после двухдневной комы и никак не может ничего о себе вспомнить. Она вынуждена верить Майклу, представившемуся ее женихом. Кроме Майкла, рядом с ней постоянно находится Мелисса, назвавшаяся лучшей подругой Брук.
Несмотря на заботу со стороны Майкла и Мелиссы, Брук не чувствует себя в безопасности. Ее постоянно посещают какие-то непонятные воспоминания. К тому же, ей постоянно кажется, что за ней кто-то наблюдает. С каждым днем у Брук появляется все больше вопросов и сомнений…
Все раздачи фильма
Сэмпл: http://rusfolder.com/42718375
Тип релиза: HDTV 1080i
Контейнер: TS
Видео: AVC/H.264, PAL, 1920х1080 (16:9), 25 fps, 7522 Kbps
Аудио: русский, MP-2, 48000 Hz, 192 Кбит/сек, 2 ch

MediaInfo

Общее
Идентификатор : 1 (0x1)
Полное имя : D:\Отчаянный побег.ts
Формат : MPEG-TS
Размер файла : 4,86 Гбайт
Продолжительность : 1 ч. 25 м.
Режим общего битрейта : Переменный
Общий поток : 8117 Кбит/сек
Максимальный общий битрейт : 35,5 Мбит/сек
Видео
Идентификатор : 4113 (0x1011)
Идентификатор меню : 1 (0x1)
Формат : AVC
Формат/Информация : Advanced Video Codec
Профиль формата : Main@L4.0
Параметр CABAC формата : Да
Параметр ReFrames формата : 3 кадра
Параметр GOP формата : M=4, N=32
Идентификатор кодека : 27
Продолжительность : 1 ч. 25 м.
Вид битрейта : Переменный
Битрейт : 7522 Кбит/сек
Максимальный битрейт : 40,0 Мбит/сек
Ширина : 1920 пикселей
Высота : 1080 пикселей
Соотношение сторон : 16:9
Частота кадров : 25,000 кадров/сек
Стандарт вещания : Component
Цветовое пространство : YUV
Субдискретизация насыщенности : 4:2:0
Битовая глубина : 8 бит
Тип развёртки : Чересстрочная
Порядок развёртки : Верхнее поле первое
Бит/(Пиксели*Кадры) : 0.145
Размер потока : 4,50 Гбайт (93%)
Основные цвета : BT.709
Характеристики трансфера : BT.709
Коэффициенты матрицы : BT.709
colour_range : Limited
Аудио
Идентификатор : 4352 (0x1100)
Идентификатор меню : 1 (0x1)
Формат : MPEG Audio
Версия формата : Version 1
Профиль формата : Layer 2
Идентификатор кодека : 4
Продолжительность : 1 ч. 25 м.
Вид битрейта : Постоянный
Битрейт : 192 Кбит/сек
Каналы : 2 канала
Частота : 48,0 КГц
Метод сжатия : С потерями
Размер потока : 118 Мбайт (2%)
Язык : Russian

Скриншоты с названием фильма

Скриншоты



Показать сообщения:    

Текущее время: 13-Дек 15:16

Часовой пояс: UTC ± 0


Вы не можете начинать темы
Вы не можете отвечать на сообщения
Вы не можете редактировать свои сообщения
Вы не можете удалять свои сообщения
Вы не можете голосовать в опросах
Вы не можете прикреплять файлы к сообщениям
Вы не можете скачивать файлы

!ВНИМАНИЕ!
Сайт не предоставляет электронные версии произведений, а занимается лишь коллекционированием и каталогизацией ссылок, присылаемых и публикуемых на форуме нашими читателями. Если вы являетесь правообладателем какого-либо представленного материала и не желаете, чтобы ссылка на него находилась в нашем каталоге, свяжитесь с нами, и мы незамедлительно удалим ее. Файлы для обмена на трекере предоставлены пользователями сайта, и администрация не несет ответственности за их содержание. Просьба не заливать файлы, защищенные авторскими правами, а также файлы нелегального содержания!