Важное объявление!
У Нас Все раздачи мультитрекерные, при нуле пиров в релизах, можете смело вставать на закачку!
 
Автор Сообщение

HUNTER

Стаж:
4 года 8 месяцев
Сообщений:
62068

Репутация: 101

[+] [-]
Вне форума [Профиль] [ЛС]

Отчаянные меры | Last Resort
«Наперекор чести»
-
Год выпуска: 2012
Страна: США | ABC
Жанр: боевик, триллер, драма
Продолжительность: ~ 44 минуты
Перевод: Профессиональный (многоголосый, закадровый) NewStudio
Субтитры: Отсутствуют-Режиссёр: Мартин Кэмпбелл, Кевин Хукс
В ролях: Андре Брауэр, Отем Ризер, Скотт Спидмэн, Дэйзи Беттс, Камиль де Паззис, Дэниэл Лиссинг, Сар Нгойя и др.-Описание: На глубине 500 футов под поверхностью океана, американская атомная подводная лодка «Колорадо» получает приказ по радиоканалу, предназначенному для использования только в том случае, если их родина находится под угрозой уничтожения. Им приказывают нанести ядерный удар по Пакистану.
Капитан Маркус Чаплин требует подтверждения приказа специально, чтобы Белый Дом отстранил его от должностных обязанностей. Старший помощник командира Сэм Кендал неожиданно становится ответственным за субмарину и сталкивается с тем, что ему нужно принять непростое решение. Когда он отказывается стрелять без подтверждения приказа, подлодку атакуют, и она получает пробоину. Субмарина и её экипаж оказываются на дне океана, признанные врагами своей страны. И в этот момент, когда все пути назад закрыты, Чаплин и Кендал решают выбраться на остров. Здесь они найдут убежище и шанс на новую жизнь, даже когда они попытаются очистить свои имена и вернуться домой.-Качество: WEB-DL 1080p
Формат: MKV
Видео кодек: H.264
Аудио кодек: AC3
Видео: 1920x1080 (16:9), 23.976 fps, ~5000 kbps, ~0.100 bit/pixel
Аудио 1: Russian: 48 kHz, 6 ch, ~384 kbps |NewStudio|
Аудио 2: English: 48 kHz, 6 ch, ~384 kbps |Original|-

Доп. информация

MediaInfo

Код: copyText_writeLink('this.parentNode.parentNode.nextSibling.nextSibling'); Общее
Уникальный идентификатор : 236997786110971306395978409523115858784 (0xB24C1D0163D8AE038D1AAD6643BA1B60)
Полное имя : I:\Last.Resort.s01.1080p.WEB-DL.Rus.Eng.NewStudio\Last.Resort.s01e01.1080p.WEB-DL.Rus.Eng.NewStudio.mkv
Формат : Matroska
Версия формата : Version 2
Размер файла : 1,82 Гбайт
Продолжительность : 44 м.
Общий поток : 5842 Кбит/сек
Дата кодирования : UTC 2012-10-10 12:38:39
Программа кодирования : mkvmerge v5.8.0 ('No Sleep / Pillow') built on Sep 2 2012 15:37:04
Библиотека кодирования : libebml v1.2.3 + libmatroska v1.3.0
Видео
Идентификатор : 1
Формат : AVC
Формат/Информация : Advanced Video Codec
Профиль формата : [url=mailto:High@L4.0]High@L4.0[/url]
Параметр CABAC формата : Да
Параметр ReFrames формата : 4 кадра
Идентификатор кодека : V_MPEG4/ISO/AVC
Продолжительность : 44 м.
Битрейт : 4958 Кбит/сек
Ширина : 1920 пикселей
Высота : 1080 пикселей
Соотношение сторон : 16:9
Режим частоты кадров : Постоянный
Частота кадров : 23,976 кадра/сек
Цветовое пространство : YUV
Субдискретизация насыщенности : 4:2:0
Битовая глубина : 8 бит
Тип развёртки : Прогрессивная
Бит/(Пиксели*Кадры) : 0.100
Размер потока : 1,55 Гбайт (85%)
Язык : English
Default : Да
Forced : Нет
Основные цвета : BT.709
Характеристики трансфера : BT.709
Коэффициенты матрицы : BT.709
Аудио #1
Идентификатор : 2
Формат : AC-3
Формат/Информация : Audio Coding 3
Расширение режима : CM (complete main)
Параметр Endianness формата : Big
Идентификатор кодека : A_AC3
Продолжительность : 44 м.
Вид битрейта : Постоянный
Битрейт : 384 Кбит/сек
Каналы : 6 каналов
Расположение каналов : Front: L C R, Side: L R, LFE
Частота : 48,0 КГц
Битовая глубина : 16 бит
Метод сжатия : С потерями
Размер потока : 123 Мбайт (7%)
Заголовок : NewStudio
Язык : Russian
Default : Да
Forced : Нет
Аудио #2
Идентификатор : 3
Формат : AC-3
Формат/Информация : Audio Coding 3
Расширение режима : CM (complete main)
Параметр Endianness формата : Big
Идентификатор кодека : A_AC3
Продолжительность : 44 м.
Вид битрейта : Постоянный
Битрейт : 384 Кбит/сек
Каналы : 6 каналов
Расположение каналов : Front: L C R, Side: L R, LFE
Частота : 48,0 КГц
Битовая глубина : 16 бит
Метод сжатия : С потерями
Размер потока : 123 Мбайт (7%)
Заголовок : Original
Язык : English
Default : Нет
Forced : Нет

Список серий

  • Captain / Капитан
  • Blue on Blue / Огонь по своим
  • Eight Bells / Восьмые склянки
  • Voluntold / Добровольцы поневоле
  • Skeleton Crew / Неполный экипаж
  • Another Fine Navy Day / Ещё один денёк на флоте
  • Скриншоты


    -

    Внимание! Раздача ведётся путём добавления новых серий

    Внимание! Раздача ведётся путём добавления новых серий;
    При каждом добавлении создаётся новый торрент. Чтобы начать докачку новой серии, пользователям необходимо сделать следующее:
    1. Остановить скачивание,
    2. Удалить старый торрент у себя из клиента (старые серии удалять не надо),
    3. Скачать новый торрент и запустить его у себя в клиенте вместо старого, при этом указать клиенту путь в старую папку куда и должно происходить скачивание новых серий.
    Ваш клиент при этом должен произвести хеширование (проверку) старой папки (если не производит сам - помогите ему сделать это), и будет докачивать только те серии которых у вас ещё нет. Старые серии при этом не удаляются, а продолжают раздаваться!
    Если вы уже удалили старые серии, то предотвратить повторную закачку старых серий можно, отжав галочку в соответствующих местах при запуске нового торрента.
    -

    _________________
    Показать сообщения:    

    Текущее время: Сегодня 20:25

    Часовой пояс: GMT



    Вы не можете начинать темы
    Вы не можете отвечать на сообщения
    Вы не можете редактировать свои сообщения
    Вы не можете удалять свои сообщения
    Вы не можете голосовать в опросах
    Вы не можете прикреплять файлы к сообщениям
    Вы не можете скачивать файлы
    Наши партнеры: интернет магазин Ивановского трикотажа textilla.ru