Важное объявление!
У Нас Все раздачи мультитрекерные, при нуле пиров в релизах, можете смело вставать на закачку!
 
Автор Сообщение

HUNTER

Стаж:
4 года 10 месяцев
Сообщений:
65522

Репутация: 101

[+] [-]
Вне форума [Профиль] [ЛС]


Отчаянные меры / Последняя надежда
Last Resort
Сезон 1 / Серии 1-13 из 13
-Год производства: 2012
Страна: USA
Жанр: боевик, триллер, драма
Продолжительность: ~ 00:44:00
Кол-во серий/сезонов: 1 Сезон: серий 1-13 из 13
Перевод: Профессиональный (многоголосый, закадровый) NewStudio
Субтитры: Отсутствуют-Режиссер: Мартин Кэмпбелл, Кевин Хукс-В ролях: Андре Брауэр, Отем Ризер, Скотт Спидмэн, Дэйзи Беттс, Камиль де Паззис, Дэниэл Лиссинг, Сар Нгойя и др.-Описание: На глубине 500 футов под поверхностью океана, американская атомная подводная лодка «Колорадо» получает приказ по радиоканалу, предназначенному для использования только в том случае, если их родина находится под угрозой уничтожения. Им приказывают нанести ядерный удар по Пакистану.
Капитан Маркус Чаплин требует подтверждения приказа специально, чтобы Белый Дом отстранил его от должностных обязанностей. Старший помощник командира Сэм Кендал неожиданно становится ответственным за субмарину и сталкивается с тем, что ему нужно принять непростое решение. Когда он отказывается стрелять без подтверждения приказа, подлодку атакуют, и она получает пробоину. Субмарина и её экипаж оказываются на дне океана, признанные врагами своей страны. И в этот момент, когда все пути назад закрыты, Чаплин и Кендал решают выбраться на остров. Здесь они найдут убежище и шанс на новую жизнь, даже когда они попытаются очистить свои имена и вернуться домой.
-Качество видео: WEB-DL 720p
Формат видео: mkv
Видео кодек: AVC
Аудио кодек: AC3
Видео: 1280x720 (16:9), 23.976 fps, ~3 984 kbps, ~0.180 bit/pixel
Аудио#1: 48 kHz, 6 ch, ~384 kbps |NewStudio|
Аудио#2: 48 kHz, 6 ch, ~384 kbps |Original|-

Доп. информация

Скриншоты

MediaInfo

Код: copyText_writeLink('this.parentNode.parentNode.nextSibling.nextSibling');
Общее
General
Unique ID : 193655685088507176363175742195400988030 (0x91B0BA70A44F97F396924A60BCB8557E)
Complete name : I:\ЗАКАЧКИ\Last.Resort.s01e01.WEBDL.720p.NewStudio.TV.mkv
Format : Matroska
File size : 1.51 GiB
Duration : 44mn 39s
Overall bit rate : 4 848 Kbps
Encoded date : UTC 2012-09-23 17:01:26
Writing application : mkvmerge v5.7.0 ('The Whirlwind') built on Jul 8 2012 20:08:51
Writing library : libebml v1.2.3 + libmatroska v1.3.0
Video
ID : 1
Format : AVC
Format/Info : Advanced Video Codec
Format profile : [url=mailto:High@L3.1]High@L3.1[/url]
Format settings, CABAC : No
Format settings, ReFrames : 2 frames
Format settings, GOP : M=2, N=25
Codec ID : V_MPEG4/ISO/AVC
Duration : 44mn 39s
Bit rate : 3 984 Kbps
Width : 1 280 pixels
Height : 720 pixels
Display aspect ratio : 16:9
Frame rate : 23.976 fps
Color space : YUV
Chroma subsampling : 4:2:0
Bit depth : 8 bits
Scan type : Progressive
Bits/(Pixel*Frame) : 0.180
Stream size : 1.24 GiB (82%)
Language : English
Color primaries : BT.709-5, BT.1361, IEC 61966-2-4, SMPTE RP177
Transfer characteristics : BT.709-5, BT.1361
Matrix coefficients : BT.709-5, BT.1361, IEC 61966-2-4 709, SMPTE RP177
Audio #1
ID : 2
Format : AC-3
Format/Info : Audio Coding 3
Mode extension : CM (complete main)
Codec ID : A_AC3
Duration : 44mn 39s
Bit rate mode : Constant
Bit rate : 384 Kbps
Channel(s) : 6 channels
Channel positions : Front: L C R, Side: L R, LFE
Sampling rate : 48.0 KHz
Bit depth : 16 bits
Compression mode : Lossy
Stream size : 123 MiB (8%)
Language : Russian
Audio #2
ID : 3
Format : AC-3
Format/Info : Audio Coding 3
Mode extension : CM (complete main)
Codec ID : A_AC3
Duration : 44mn 39s
Bit rate mode : Constant
Bit rate : 384 Kbps
Channel(s) : 6 channels
Channel positions : Front: L C R, Side: L R, LFE
Sampling rate : 48.0 KHz
Bit depth : 16 bits
Compression mode : Lossy
Stream size : 123 MiB (8%)
Language : English

Внимание! Раздача ведётся путём добавления новых серий

Внимание! Раздача ведётся путём добавления новых серий; при каждом добавлении создётся новый торрент. Чтобы начать докачку новой серии, пользователям необходимо сделать следующее:
(1) остановить скачивание,
(2) удалить старый торрент у себя из клиента (старые серии удалять не надо),
(3) скачать новый торрент и запустить его у себя в клиенте вместо старого, при этом указать клиенту путь в старую папку куда и должно происходить скачивание новых серий.
Ваш клиент при этом должен произвести хеширование (проверку) старой папки (если не производит сам - помогите ему сделать это), и будет докачивать только те серии которых у вас ещё нет. Старые серии при этом не удаляются, а продолжают раздаваться!
Eсли вы уже удалили старые серии, то предотвратить повторную закачку старых серий можно, отжав галочку в соответсвующих местах при запуске нового торрента. По возможности, желательно не удалять старые серии как можно дольше, чтобы релизёр не столько продолжал раздавать старые серии, а смог сконцентрироваться на новых.

_________________
Показать сообщения:    

Текущее время: Сегодня 21:33

Часовой пояс: GMT



Вы не можете начинать темы
Вы не можете отвечать на сообщения
Вы не можете редактировать свои сообщения
Вы не можете удалять свои сообщения
Вы не можете голосовать в опросах
Вы не можете прикреплять файлы к сообщениям
Вы не можете скачивать файлы