Важное объявление!
У Нас Все раздачи мультитрекерные, при нуле пиров в релизах, можете смело вставать на закачку!
 
Автор Сообщение

palych74

Стаж:
4 года 6 месяцев
Сообщений:
80

Репутация: 21

[+] [-]
Вне форума [Профиль] [ЛС]

Отстегните ремни
Год выпуска: 2012
Производство: кинокомпания «Всемирные Русские Студии»
Жанр: Криминал, Мелодрама
Продолжительность: ~ 00:50:00
Субтитры: нет
Режиссёр: Ольга Перуновская
В ролях: Екатерина Редникова, Марат Башаров, Виктор Вержбицкий, Гундарс Аболиньш, Юрис Жагарс, Александра Метальникова, Ирина Степанова (III)
Описание: Сценарий сериала написан по мотивам известного романа Катерины Кириченко. По сюжету, в тяжелые 90е годы главная героиня истории Ксения эмигрировала в Нидерланды, а через двадцать лет решила вернуться на родину, в Москву. Причина - начинающийся роман с крупным российским бизнесменом Максимом. Ксения приезжает в загородный дом Максима, чтобы провести романтический вечер с любимым. Но внезапно Макса якобы вызывают на работу, а в дом врываются бандиты и пытаются украсть его маленькую дочь Дашу. Но отважной Ксении удается сбежать вместе с ребенком. Все деньги, документы и телефоны остались в особняке. За Ксенией с ребенком охотятся рейдеры, милиция объявила ее в розыск, а бывшая жена Макса, мать Даши, оказывается заодно с бандитами… Так короткий двухнедельный визит в родную страну превращается в бег с препятствиями… Сможет ли героиня спасти ребенка, бизнес любимого человека, обрести семью, счастье и спокойствие?
Доп. информация: Rip by r00tor | Футболист | bvsbns
Обнаружена реклама РГ!
Сэмпл
Качество: SATRip
Формат: AVI
Видео кодек: XviD
Аудио кодек: MP3
Видео: 704x368 (1.91:1), 25 fps, XviD MPEG-4 ~1502 kbps avg, 0.23 bit/pixel
Аудио: 48 kHz, MPEG Layer 3, 2 ch, ~128.00 kbps avg- -

MI

General
Complete name : I:\Отстегните ремни [mgt]\Otstegnite.Remni.1.avi
Format : AVI
Format/Info : Audio Video Interleave
File size : 564 MiB
Duration : 48mn 4s
Overall bit rate : 1 640 Kbps
Writing application : VirtualDubMod 1.5.10.2 (build 2540/release)
Writing library : VirtualDub build 32842/release
Video
ID : 0
Format : MPEG-4 Visual
Format profile : Advanced Simple@L5
Format settings, BVOP : Yes
Format settings, QPel : No
Format settings, GMC : No warppoints
Format settings, Matrix : Default (MPEG)
Muxing mode : Packed bitstream
Codec ID : XVID
Codec ID/Hint : XviD
Duration : 48mn 4s
Bit rate : 1 503 Kbps
Width : 704 pixels
Height : 368 pixels
Display aspect ratio : 1.913
Frame rate : 25.000 fps
Color space : YUV
Chroma subsampling : 4:2:0
Bit depth : 8 bits
Scan type : Progressive
Bits/(Pixel*Frame) : 0.232
Stream size : 517 MiB (92%)
Writing library : XviD 64
Audio
ID : 1
Format : MPEG Audio
Format version : Version 1
Format profile : Layer 3
Mode : Joint stereo
Mode extension : MS Stereo
Codec ID : 55
Codec ID/Hint : MP3
Duration : 48mn 4s
Bit rate mode : Constant
Bit rate : 128 Kbps
Channel(s) : 2 channels
Sampling rate : 48.0 KHz
Stream size : 44.0 MiB (8%)
Alignment : Aligned on interleaves
Interleave, duration : 40 ms (1.00 video frame)
Interleave, preload duration : 504 ms
Writing library : LAME3.90.3

Внимание! Раздача ведется путем добавления новых серий

Внимание! Раздача ведется путем добавления новых серий! При каждом добавлении создаётся новый торент. Чтобы начать скачивание новой серии, Вам необходимо сделать следующее:
(1) остановить скачивание,
(2) удалить старый торрент у себя из клиента (старые серии удалять не надо),
(3) скачать новый торрент и запустить его у себя в клиенте вместо старого, при этом указать клиенту путь в старую папку куда и должно происходить скачивание новых серий.
Ваш клиент при этом должен произвести хеширование (проверку) старой папки (если не производит сам - помогите ему сделать это), и будет докачивать только те серии которых у вас ещё нет. Старые серии при этом не удаляются, а продолжают раздаваться!
Eсли вы уже удалили старые серии, то предотвратить повторную закачку старых серий можно, отжав галочку в соответствующих местах при запуске нового торрента.
По возможности, желательно не удалять старые серии как можно дольше чтобы релизёр не столько продолжал раздавать старые серии, а смог сконцентрироваться на новых.
-Добавлены 7-8 серии!
Показать сообщения:    

Текущее время: Сегодня 21:28

Часовой пояс: GMT



Вы не можете начинать темы
Вы не можете отвечать на сообщения
Вы не можете редактировать свои сообщения
Вы не можете удалять свои сообщения
Вы не можете голосовать в опросах
Вы не можете прикреплять файлы к сообщениям
Вы не можете скачивать файлы
Наши партнеры: интернет магазин Ивановского трикотажа textilla.ru