Ивановский Торрент трекер
Яндекс.Погода
 

[Цитировать]
HUNTER

Отрыв-Год выпуска: 2012
Страна: Россия ,Всемирные Русские Студии по заказу Первого канала
Жанр: Остросюжетная драма
Продолжительность: 8 х ~ 00:50:00
Кол-во серий: 1 - 8
Перевод: оригинал
Субтитры: нет-В ролях: Игорь Петренко, Катерина Васильева (V), Андрей Смоляков, Андрей Панин, Кристина Кузьмина, Елена Лядова, Николай Добрынин, Игорь Скляр, Владимир Колганов, Андрей Зибров, Кирилл Полухин, Дмитрий Поднозов, Руслан Лукьянов, Александр Стекольников, Егор Бакулин, Андрей Шипицын, Владимир Галась, Денис Кириллов, Александр Русинов
Режиссёр: Сергей Попов-Описание: 1947 год. Фронтовик Алексей Митрохин приезжает в Москву навестить бывшего комбата Аргунова, который на войне спас его от расстрела. Но оказывается, что комбат осужден на 25 лет, и отбывает наказание в лагере "Лазо". Митрохин решается на отчаянный поступок – вытащить Аргунова, устроив ему побег...-Качество: WeBRip
Формат: Avi
Видео кодек: XviD
Аудио кодек: AC3
Видео: 720x392 (1.84:1), 25 fps, XviD build 50 ~1641 kbps avg, 0.23 bit/pixel
Аудио: 48 kHz, AC3 Dolby Digital, 2/0 (L,R) ch, ~128.00 kbps avg-

минфо

General
Complete name \Otryv_8_serii_iz_8_2012_WeBRip\Otryv.1.serija.iz.8.2012.avi
Format : AVI
Format/Info : Audio Video Interleave
File size : 619 MiB
Duration : 48mn 16s
Overall bit rate : 1 792 Kbps
Writing application : VirtualDubMod 1.5.10.3 || (build 2550/release)
Writing library : VirtualDubMod build 2550/release
Video
ID : 0
Format : MPEG-4 Visual
Format profile : Advanced Simple@L5
Format settings, BVOP : 2
Format settings, QPel : No
Format settings, GMC : No warppoints
Format settings, Matrix : Default (H.263)
Codec ID : XVID
Codec ID/Hint : XviD
Duration : 48mn 16s
Bit rate : 1 654 Kbps
Width : 720 pixels
Height : 392 pixels
Display aspect ratio : 16:9
Frame rate : 25.000 fps
Color space : YUV
Chroma subsampling : 4:2:0
Bit depth : 8 bits
Scan type : Progressive
Compression mode : Lossy
Bits/(Pixel*Frame) : 0.234
Stream size : 571 MiB (92%)
Writing library : XviD 1.2.1 (UTC 2008-12-04)
Audio
ID : 1
Format : AC-3
Format/Info : Audio Coding 3
Mode extension : CM (complete main)
Codec ID : 2000
Duration : 48mn 16s
Bit rate mode : Constant
Bit rate : 128 Kbps
Channel(s) : 2 channels
Channel positions : Front: L R
Sampling rate : 48.0 KHz
Bit depth : 16 bits
Compression mode : Lossy
Stream size : 44.2 MiB (7%)
Alignment : Split accross interleaves
Interleave, duration : 40 ms (1.00 video frame)
Interleave, preload duration : 500 ms

Скриншоты








0 человек читают эту тему: 0 пользователей, 0 скрытых пользователей, 0 гостей

Показать сообщения:    

Текущее время: 23-Авг 03:35

Часовой пояс: UTC - 1


Вы не можете начинать темы
Вы не можете отвечать на сообщения
Вы не можете редактировать свои сообщения
Вы не можете удалять свои сообщения
Вы не можете голосовать в опросах
Вы не можете прикреплять файлы к сообщениям
Вы не можете скачивать файлы

!ВНИМАНИЕ!
Сайт не предоставляет электронные версии произведений, а занимается лишь коллекционированием и каталогизацией ссылок, присылаемых и публикуемых на форуме нашими читателями. Если вы являетесь правообладателем какого-либо представленного материала и не желаете, чтобы ссылка на него находилась в нашем каталоге, свяжитесь с нами, и мы незамедлительно удалим ее. Файлы для обмена на трекере предоставлены пользователями сайта, и администрация не несет ответственности за их содержание. Просьба не заливать файлы, защищенные авторскими правами, а также файлы нелегального содержания!