Важное объявление!
У Нас Все раздачи мультитрекерные, при нуле пиров в релизах, можете смело вставать на закачку!
Статистика раздачи
Размер:     |    Зарегистрирован:     |    Скачан:     |   
Нет
 
     
 
 
Автор Сообщение

HUNTER

Стаж:
5 лет
Сообщений:
67910

Репутация: 101

[+] [-]
Вне форума [Профиль] [ЛС]

-Отмороженные / Freezer-«Only the cold bloodied will survive»
-Страна: США
Студия: Envision Media Arts
Жанр: триллер
Год выпуска: 2014
Мировая премьера: 17 января 2014
Российская премьера: 13 ноября 2014, «Ракета Релизинг», «Кинологистика»
Дата выхода DVD: 11 декабря 2014, «CD Land»
Продолжительность: 01:22:02
Перевод: Профессиональный (многоголосый закадровый) [Лицензия]
Cубтитры: нет
Оригинальная аудиодорожка: нет-Режиссер: Микаэл Саломон / Mikael Salomon-В ролях: Дилан МакДермотт, Питер Фачинелли, Юлия Снигирь, Милан Малисич, Андрей Ивченко, Паскаль Петарди, Дэвид МакНалли, Маркус Парило-Описание: Роберт Сондерс, обычный механик, потерял сознание на своем дне рождения и очнулся в морозильнике. Появившиеся русские бандиты начинают обвинять его в краже 8 миллионов долларов. Чтоб Роберт быстрее отдал деньги, бандиты начинают пытать его холодом. Температура падает. Страх растет. Перед Робертом встает выбор, замерзнуть от холода или быть убитым русскими бандитами, так как его все равно живым не отпустят. Но может есть третий выбор…-Бонусы: нет- -Релиз группы: -Качество: DVD5 R5
Формат: DVD-Video
Видео кодек: MPEG2
Аудио кодек: AC3
Видео: PAL 16:9 (720x576(0.638)) MPEG Video, 25,000 кадр/сек, 6619 Кбит/сек
Аудио: Russian (Dolby AC3, 6 ch) 448 Кбит/сек, 48,0 КГц--

DVDInfo

Title: Рабочий
Size: 4.21 Gb ( 4 412 026 KBytes ) - DVD-5
Enabled regions: 1, 2, 3, 4, 5, 6, 7, 8
VTS_01 :
Play Length: 00:00:19
Video: PAL 16:9 (720x576) VBR, Auto Pan&Scan, Auto Letterboxed
Audio:
Not specified (Dolby AC3, 2 ch)
VTS_02 :
Play Length: 01:22:02
Video: PAL 16:9 (720x576) VBR, Auto Pan&Scan, Auto Letterboxed
Audio:
Not specified (Dolby AC3, 6 ch)
Menu Video:
PAL 16:9 (720x576) VBR
Auto Pan&Scan, Auto Letterboxed
Menu Subtitles:
Not specified
Menu English Language Unit :
Root Menu

MediaInfo

Общее
Полное имя : F:\Новинки 2014\Otmorozhennye.2014.DVD5\VIDEO_TS\VTS_02_1.VOB
Формат : MPEG-PS
Размер файла : 1024 Мбайт
Продолжительность : 19 м.
Режим общего битрейта : Переменный
Общий поток : 7210 Кбит/сек
Видео
Идентификатор : 224 (0xE0)
Формат : MPEG Video
Версия формата : Version 2
Профиль формата : Main@Main
Параметр BVOP формата : Да
Параметр матрицы формата : Выборочная
Параметр GOP формата : M=3, N=15
Format_Settings_PictureStructure : Frame
Продолжительность : 19 м.
Вид битрейта : Переменный
Битрейт : 6619 Кбит/сек
Максимальный битрейт : 9000 Кбит/сек
Ширина : 720 пикселей
Высота : 576 пикселей
Соотношение сторон : 16:9
Частота кадров : 25,000 кадров/сек
Стандарт вещания : PAL
Цветовое пространство : YUV
Субдискретизация насыщенности : 4:2:0
Битовая глубина : 8 бит
Тип развёртки : Чересстрочная
Порядок развёртки : Верхнее поле первое
Метод сжатия : С потерями
Бит/(Пиксели*Кадры) : 0.638
Временной код первого кадра : 00:00:00:00
Оригинал временного кода : Group of pictures header
Размер потока : 940 Мбайт (92%)
Аудио
Идентификатор : 189 (0xBD)-128 (0x80)
Формат : AC-3
Формат/Информация : Audio Coding 3
Расширение режима : CM (complete main)
Параметр Endianness формата : Big
Режим смешивания : DVD-Video
Продолжительность : 19 м.
Вид битрейта : Постоянный
Битрейт : 448 Кбит/сек
Каналы : 6 каналов
Расположение каналов : Front: L C R, Side: L R, LFE
Частота : 48,0 КГц
Битовая глубина : 16 бит
Метод сжатия : С потерями
Размер потока : 63,6 Мбайт (6%)

Скриншоты меню

Скриншоты фильма


-
-Раздача от группы:

_________________
Показать сообщения:    

Текущее время: Сегодня 02:52

Часовой пояс: GMT



Вы не можете начинать темы
Вы не можете отвечать на сообщения
Вы не можете редактировать свои сообщения
Вы не можете удалять свои сообщения
Вы не можете голосовать в опросах
Вы не можете прикреплять файлы к сообщениям
Вы не можете скачивать файлы